Taking Lives 2004 (Directorial Version) 1080p Blue-ray Remux True-HD 5.1 { English + Rus + Jap} MSub- Saturnweb

General

Format : Matroska
Format version : Version 4
File size : 17.5 GiB
Duration : 1 h 49 min
Overall bit rate mode : Variable
Overall bit rate : 23.0 Mb/s
Encoded date : UTC 2019-12-15 05:34:30
Writing application : mkvmerge v29.0.0 (‘Like It Or Not’) 32-bit
Writing library : libebml v1.3.6 + libmatroska v1.4.9

Video
ID : 1
Format : VC-1
Format profile : [email protected]
Codec ID : V_MS/VFW/FOURCC / WVC1
Codec ID/Hint : Microsoft
Duration : 1 h 49 min
Bit rate : 19.9 Mb/s
Width : 1 920 pixels
Height : 1 080 pixels
Display aspect ratio : 16:9
Frame rate mode : Constant
Frame rate : 23.976 (24000/1001) FPS
Color space : YUV
Chroma subsampling : 4:2:0
Bit depth : 8 bits
Scan type : Progressive
Compression mode : Lossy
Bits/(Pixel*Frame) : 0.400
Stream size : 15.1 GiB (87%)
Default : Yes
Forced : No

Audio #1
ID : 2
Format : AC-3
Format/Info : Audio Coding 3
Commercial name : Dolby Digital
Codec ID : A_AC3
Duration : 1 h 49 min
Bit rate mode : Constant
Bit rate : 384 kb/s
Channel(s) : 6 channels
Channel layout : L R C LFE Ls Rs
Sampling rate : 48.0 kHz
Frame rate : 31.250 FPS (1536 SPF)
Bit depth : 16 bits
Compression mode : Lossy
Delay relative to video : 42 ms
Stream size : 300 MiB (2%)
Language : Russian
Service kind : Complete Main
Default : Yes
Forced : No

Audio #2
ID : 3
Format : MLP FBA
Format/Info : Meridian Lossless Packing FBA
Commercial name : Dolby TrueHD
Codec ID : A_TRUEHD
Duration : 1 h 49 min
Bit rate mode : Variable
Bit rate : 1 272 kb/s
Maximum bit rate : 3 069 kb/s
Channel(s) : 6 channels
Channel layout : L R C LFE Ls Rs
Sampling rate : 48.0 kHz
Frame rate : 1 200.000 FPS (40 SPF)
Compression mode : Lossless
Delay relative to video : 42 ms
Stream size : 992 MiB (6%)
Language : English
Default : No
Forced : No

Audio #3
ID : 4
Format : AC-3
Format/Info : Audio Coding 3
Commercial name : Dolby Digital
Codec ID : A_AC3
Duration : 1 h 49 min
Bit rate mode : Constant
Bit rate : 640 kb/s
Channel(s) : 6 channels
Channel layout : L R C LFE Ls Rs
Sampling rate : 48.0 kHz
Frame rate : 31.250 FPS (1536 SPF)
Bit depth : 16 bits
Compression mode : Lossy
Delay relative to video : 42 ms
Stream size : 499 MiB (3%)
Language : English
Service kind : Complete Main
Default : No
Forced : No

Audio #4
ID : 5
Format : AC-3
Format/Info : Audio Coding 3
Commercial name : Dolby Digital
Codec ID : A_AC3
Duration : 1 h 49 min
Bit rate mode : Constant
Bit rate : 640 kb/s
Channel(s) : 6 channels
Channel layout : L R C LFE Ls Rs
Sampling rate : 48.0 kHz
Frame rate : 31.250 FPS (1536 SPF)
Bit depth : 16 bits
Compression mode : Lossy
Delay relative to video : 42 ms
Stream size : 499 MiB (3%)
Language : Japanese
Service kind : Complete Main
Default : No
Forced : No

Text #1
ID : 6
Format : PGS
Muxing mode : zlib
Codec ID : S_HDMV/PGS
Codec ID/Info : Picture based subtitle format used on BDs/HD-DVDs
Duration : 1 h 44 min
Bit rate : 19.7 kb/s
Count of elements : 2154
Stream size : 14.7 MiB (0%)
Language : Japanese
Default : Yes
Forced : No

Text #2
ID : 7
Format : PGS
Muxing mode : zlib
Codec ID : S_HDMV/PGS
Codec ID/Info : Picture based subtitle format used on BDs/HD-DVDs
Duration : 1 h 48 min
Bit rate : 25.8 kb/s
Count of elements : 2090
Stream size : 20.0 MiB (0%)
Language : English
Default : No
Forced : No

Text #3
ID : 8
Format : PGS
Muxing mode : zlib
Codec ID : S_HDMV/PGS
Codec ID/Info : Picture based subtitle format used on BDs/HD-DVDs
Duration : 1 h 32 min
Bit rate : 1 318 b/s
Count of elements : 298
Stream size : 897 KiB (0%)
Language : Japanese
Default : No
Forced : No

Text #4
ID : 9
Format : PGS
Muxing mode : zlib
Codec ID : S_HDMV/PGS
Codec ID/Info : Picture based subtitle format used on BDs/HD-DVDs
Duration : 1 h 48 min
Bit rate : 19.6 kb/s
Count of elements : 1826
Stream size : 15.2 MiB (0%)
Language : French
Default : No
Forced : No

Text #5
ID : 10
Format : PGS
Muxing mode : zlib
Codec ID : S_HDMV/PGS
Codec ID/Info : Picture based subtitle format used on BDs/HD-DVDs
Duration : 1 h 7 min
Bit rate : 2 015 b/s
Count of elements : 118
Stream size : 989 KiB (0%)
Language : Russian
Default : No
Forced : No

Text #6
ID : 11
Format : PGS
Muxing mode : zlib
Codec ID : S_HDMV/PGS
Codec ID/Info : Picture based subtitle format used on BDs/HD-DVDs
Duration : 1 h 44 min
Bit rate : 18.4 kb/s
Count of elements : 1977
Stream size : 13.7 MiB (0%)
Language : Russian
Default : No
Forced : No

Text #7
ID : 12
Format : PGS
Muxing mode : zlib
Codec ID : S_HDMV/PGS
Codec ID/Info : Picture based subtitle format used on BDs/HD-DVDs
Duration : 1 h 48 min
Bit rate : 18.6 kb/s
Count of elements : 1754
Stream size : 14.4 MiB (0%)
Language : Dutch
Default : No
Forced : No

Text #8
ID : 13
Format : PGS
Muxing mode : zlib
Codec ID : S_HDMV/PGS
Codec ID/Info : Picture based subtitle format used on BDs/HD-DVDs
Duration : 1 h 48 min
Bit rate : 20.5 kb/s
Count of elements : 1866
Stream size : 15.8 MiB (0%)
Language : Danish
Default : No
Forced : No

Text #9
ID : 14
Format : PGS
Muxing mode : zlib
Codec ID : S_HDMV/PGS
Codec ID/Info : Picture based subtitle format used on BDs/HD-DVDs
Duration : 1 h 48 min
Bit rate : 20.6 kb/s
Count of elements : 1434
Stream size : 16.0 MiB (0%)
Language : Finnish
Default : No
Forced : No

Text #10
ID : 15
Format : PGS
Muxing mode : zlib
Codec ID : S_HDMV/PGS
Codec ID/Info : Picture based subtitle format used on BDs/HD-DVDs
Duration : 1 h 48 min
Bit rate : 22.4 kb/s
Count of elements : 1786
Stream size : 17.3 MiB (0%)
Language : Norwegian
Default : No
Forced : No

Text #11
ID : 16
Format : PGS
Muxing mode : zlib
Codec ID : S_HDMV/PGS
Codec ID/Info : Picture based subtitle format used on BDs/HD-DVDs
Duration : 1 h 48 min
Bit rate : 24.8 kb/s
Count of elements : 1962
Stream size : 19.2 MiB (0%)
Language : Portuguese
Default : No
Forced : No

Text #12
ID : 17
Format : PGS
Muxing mode : zlib
Codec ID : S_HDMV/PGS
Codec ID/Info : Picture based subtitle format used on BDs/HD-DVDs
Duration : 1 h 48 min
Bit rate : 22.7 kb/s
Count of elements : 1582
Stream size : 17.6 MiB (0%)
Language : Swedish
Default : No
Forced : No

Full  Movie G- Drive 

https://drive.klop.me/file/cec19e5fa4

https://sharer.pw/file/xihl3-4mR6N

G- Drive Parts 4.4 GB 

Taking Lives (Directorial Version) 1080p Blue-ray Remux True-HD 5.1 { English + Rus + Jap} MSub- Saturnweb.part1.rar

Taking Lives (Directorial Version) 1080p Blue-ray Remux True-HD 5.1 { English + Rus + Jap} MSub- Saturnweb.part2.rar

Taking Lives (Directorial Version) 1080p Blue-ray Remux True-HD 5.1 { English + Rus + Jap} MSub- Saturnweb.part3.rar

Taking Lives (Directorial Version) 1080p Blue-ray Remux True-HD 5.1 { English + Rus + Jap} MSub- Saturnweb.part4.rar

The File Locker Download 4.4 GB 

Taking Lives (Directorial Version) 1080p Blue-ray Remux True-HD 5.1 { English + Rus + Jap} MSub- Saturnweb.part4.rar – 4.3 GB

Taking Lives (Directorial Version) 1080p Blue-ray Remux True-HD 5.1 { English + Rus + Jap} MSub- Saturnweb.part3.rar – 4.4 GB

Taking Lives (Directorial Version) 1080p Blue-ray Remux True-HD 5.1 { English + Rus + Jap} MSub- Saturnweb.part2.rar – 4.4 GB

Taking Lives (Directorial Version) 1080p Blue-ray Remux True-HD 5.1 { English + Rus + Jap} MSub- Saturnweb.part1.rar – 4.4 GB

0 0 vote
Article Rating
Subscribe
Notify of
guest
1 Comment
Oldest
Newest Most Voted
Inline Feedbacks
View all comments
lethal111
lethal111
1 year ago

good morning dear sir, ” Happy Christmas”

another humble submission to you:

plz plz plz post

sholay 1975 BD 50 untouched bluray

Waqt 1965 BD 50 untouched bluray old hindi movie Balraj Sahni

waiting very eagerly….