Ta Ra Rum Pum (2007) Hindi 1080p WebHD AVC DDP 5.1 {Music Video} ESuBS By-DusIcTv

Ta Ra Rum Pum (2007) Hindi 1080p WebHD AVC DDP 5.1 {Music Video} ESuBS By-DusIcTv

:details:
General
Format                                   : Matroska
Format version                           : Version 4
File size                                : 2.48 GB
Overall bit rate                         : 12.1 Mb/s
Writing application    : mkvmerge v35.0.0 (‘All The Love In The World’) 64-bit
Writing library  : libebml v1.3.9 + libmatroska v1.5.2

Video
ID                                       : 3
Format                                   : AVC
Format/Info                              : Advanced Video Codec
Format profile                           : [email protected]
Format settings                          : CABAC / 4 Ref Frames
Format settings, CABAC                   : Yes
Format settings, Reference frames        : 4 frames
Codec ID                                 : V_MPEG4/ISO/AVC
Bit rate                                 : 11.4 Mb/s
Width                                    : 1 920 pixels
Height                                   : 872 pixels
Display aspect ratio                     : 2.2:1
Original display aspect ratio            : 2.2:1
Frame rate mode                          : Constant
Frame rate                               : 23.976 (24000/1001) FPS
Color space                              : YUV
Chroma subsampling                       : 4:2:0
Bit depth                                : 8 bits
Scan type                                : Progressive
Bits/(Pixel*Frame)                       : 0.284
Stream size                              : 426 MiB (95%)
Title                                    : DusIcTv
Default                                  : Yes
Forced                                   : No
Color range                              : Limited
Color primaries                          : BT.709
Transfer characteristics                 : BT.709
Matrix coefficients                      : BT.709

Audio
ID                                       : 1
Format                                   : E-AC-3
Format/Info                              : Enhanced AC-3
Commercial name                          : Dolby Digital Plus
Codec ID                                 : A_EAC3
Bit rate mode                            : Constant
Bit rate                                 : 640 kb/s
Channel(s)                               : 6 channels
Channel layout                           : L R C LFE Ls Rs
Sampling rate                            : 48.0 kHz
Frame rate                               : 31.250 FPS (1536 SPF)
Compression mode                         : Lossy
Delay relative to video                  : 2 ms
Stream size                              : 23.9 MiB (5%)
Title                                    : DusIcTv
Service kind                             : Complete Main
Default                                  : Yes
Forced                                   : No

Text
ID                                       : 2
Format                                   : UTF-8
Codec ID                                 : S_TEXT/UTF8
Codec ID/Info                            : UTF-8 Plain Text
Bit rate                                 : 29 b/s
Count of elements                        : 28
Stream size                              : 875 Bytes (0%)
Default                                  : Yes
Forced                                   : No

:screens:







:download2:
01-Ab To Forever [By-DusIcTv].mkv   564.58 MB

https://thefileslocker.com/b3ip5foqkkm1.html

02-Hey Shona [By-DusIcTv].mkv   450.45 MB

https://thefileslocker.com/94c0327cokta.html

03-Ta Ra Rum Pum [By-DusIcTv].mkv   415.03 MB

https://thefileslocker.com/vqb6p7ufxbd9.html

04-Nachle Ve [By-DusIcTv].mkv   453.25 MB

https://thefileslocker.com/8rynlwc5b435.html

05-Ta Ra Ra Ra Rum Tararumpum [By-DusIcTv].mkv   301.86 MB

https://thefileslocker.com/sbewlor6r1og.html

06-Saaiyaan [By-DusIcTv].mkv   222.13 MB

https://thefileslocker.com/u1ieyv5xeugj.html

07-Ta Ra Rum Pum (End Roll) [By-DusIcTv].mkv   139.47 MB

https://thefileslocker.com/ibve478cl816.html

https://thefileslocker.com/zpfh2htwekdy.html
https://uploader.link/f/hvs0ez-n41iouqf692ki
https://uptobox.com/m3nakmbsj2pi

0 0 vote
Article Rating
Subscribe
Notify of
guest
0 Comments
Inline Feedbacks
View all comments