18+ Super Deluxe.2019.1080p.NF.WEB-DL.AVC.DDP 5.1.ESub.DDR- 4.34GB

Super Deluxe (2019)

Format : Matroska
Format version : Version 4
File size : 4.34 GiB
Duration : 2 h 55 min
Overall bit rate mode : Variable
Overall bit rate : 3 538 kb/s
Movie name : Super Deluxe / Super Deluxe
ContentType : Movie
Released date : 2019-03-29
Encoded date : UTC 2019-07-05 18:45:11
Writing application : mkvmerge v35.0.0 (‘All The Love In The World’) 64-bit
Writing library : libebml v1.3.9 + libmatroska v1.5.2
Cover : Yes
Attachments : cover.jpg
ACTOR : Vijay Sethupathi, Fahadh Faasil, Samantha Akkineni, Ramya Krishnan, Mysskin, Gayathrie Shankar, Bagavathi Perumal, Manushyaputhiran, Ashwanth Ashokkumar, Kareem Abdul-Jabbar, Vijay Ram, Noble K. James, Jayanth, Mirnalini Ravi, Kavin Jay Babu
ARTIST : Vijay Sethupathi, Fahadh Faasil, Samantha Akkineni, Ramya Krishnan, Mysskin, Gayathrie Shankar, Bagavathi Perumal, Manushyaputhiran, Ashwanth Ashokkumar, Kareem Abdul-Jabbar, Vijay Ram, Noble K. James, Jayanth, Mirnalini Ravi, Kavin Jay Babu
DATE_RECORDED : 2019-03-29
DIRECTOR : Thiagarajan Kumararaja
GENRE : Thriller, Drama
PRODUCER : Thiagarajan Kumararaja, S. D. Ezhilmathy
PRODUCTION_STUDIO : East West Dream Works
SCREENPLAY_BY : Thiagarajan Kumararaja
SYNOPSIS : An unfaithful newly-wed wife, an estranged father, a priest and an angry son suddenly find themselves in the most unexpected predicaments, each poised to experience their destiny, all on one fateful day.
WRITTEN_BY : Thiagarajan Kumararaja

Video
ID : 1
Format : AVC
Format/Info : Advanced Video Codec
Format profile : [email protected]
Format settings : CABAC / 4 Ref Frames
Format settings, CABAC : Yes
Format settings, Reference frames : 4 frames
Codec ID : V_MPEG4/ISO/AVC
Duration : 2 h 55 min
Bit rate mode : Variable
Bit rate : 2 896 kb/s
Maximum bit rate : 20.0 Mb/s
Width : 1 920 pixels
Height : 1 080 pixels
Display aspect ratio : 16:9
Frame rate mode : Constant
Frame rate : 24.000 FPS
Color space : YUV
Chroma subsampling : 4:2:0
Bit depth : 8 bits
Scan type : Progressive
Bits/(Pixel*Frame) : 0.058
Stream size : 3.55 GiB (82%)
Title : DDR @ Desitorrents.tv
Writing library : x264 core 148 r2715 7e75228
Encoding settings : cabac=1 / ref=4 / deblock=1:0:0 / analyse=0x3:0x111 / me=umh / subme=10 / psy=1 / psy_rd=1.00:0.00 / mixed_ref=1 / me_range=120 / chroma_me=1 / trellis=2 / 8x8dct=1 / cqm=0 / deadzone=21,11 / fast_pskip=1 / chroma_qp_offset=-2 / threads=8 / lookahead_threads=2 / sliced_threads=0 / nr=0 / decimate=1 / interlaced=0 / bluray_compat=0 / stitchable=1 / constrained_intra=0 / bframes=16 / b_pyramid=2 / b_adapt=2 / b_bias=0 / direct=3 / weightb=1 / open_gop=0 / weightp=2 / keyint=240 / keyint_min=121 / scenecut=0 / intra_refresh=0 / rc_lookahead=240 / rc=crf / mbtree=1 / crf=16.0 / qcomp=0.50 / qpmin=6 / qpmax=51 / qpstep=4 / vbv_maxrate=20000 / vbv_bufsize=25000 / crf_max=0.0 / nal_hrd=vbr / filler=0 / ip_ratio=1.40 / aq=1:0.80
Default : Yes
Forced : No

Audio
ID : 2
Format : E-AC-3
Format/Info : Enhanced AC-3
Commercial name : Dolby Digital Plus
Codec ID : A_EAC3
Duration : 2 h 55 min
Bit rate mode : Constant
Bit rate : 640 kb/s
Channel(s) : 6 channels
Channel layout : L R C LFE Ls Rs
Sampling rate : 48.0 kHz
Frame rate : 31.250 FPS (1536 SPF)
Compression mode : Lossy
Stream size : 804 MiB (18%)
Title : DDR @ Desitorrents.tv
Language : Tamil
Service kind : Complete Main
Default : Yes
Forced : No

Text
ID : 3
Format : UTF-8
Codec ID : S_TEXT/UTF8
Codec ID/Info : UTF-8 Plain Text
Duration : 2 h 54 min
Bit rate : 65 b/s
Count of elements : 2789
Stream size : 84.1 KiB (0%)
Title : DDR @ Desitorrents.tv
Language : English
Default : Yes
Forced : Yes

vlcsnap-2020-05-06-08h08m36s554.pngvlcsnap-2020-05-06-08h08m39s654.pngvlcsnap-2020-05-06-08h11m08s744.pngvlcsnap-2020-05-06-08h11m13s104.pngvlcsnap-2020-05-06-08h11m15s441.pngvlcsnap-2020-05-06-08h11m36s481.pngvlcsnap-2020-05-06-08h11m47s608.pngvlcsnap-2020-05-06-08h11m51s828.png
Gdrive Single Link+Download
https://bit.ly/2AdP9P1

Zupload.me Single Link+Download(Use Vpn To Open Link Download With Idm)
https://bit.ly/2zid27S

0 0 vote
Article Rating
Subscribe
Notify of
guest
1 Comment
Oldest
Newest Most Voted
Inline Feedbacks
View all comments
HASHOO GUJJAR
HASHOO GUJJAR
8 months ago

please upload Fliz movies pack+cinema dosti+kooku movies pack zip GOOGLE DRIVE LINKS THANKS