Student of the Year 2 (2019) (MUSIC VIDEOS ALBUM) 1080p WebHD AVC DD 5.1 By-DusIcTv Exclusive

xxxxxxxxxxxxxxxxxxxxxxxxxxxxxxxxxxxxxxxxxxxxxxxxxxxxxxxxxxxxxxx
Student of the Year 2 (2019) (MUSIC VIDEOS ALBUM) 1080p WebHD AVC DD 5.1 By-DusIcTv Exclusive
xxxxxxxxxxxxxxxxxxxxxxxxxxxxxxxxxxxxxxxxxxxxxxxxxxxxxxxxxxxxxxx

Media info
General
Format : Matroska
Format version : Version 4
File size : 2.27 GB
Overall bit rate : 8 222 kb/s
Encoded date : UTC 2019-08-26 08:36:15
Writing application : mkvmerge v36.0.0 (‘Is That Jazz?’) 64-bit
Writing library : libebml v1.3.9 + libmatroska v1.5.2

Video
ID : 1
Format : AVC
Format/Info : Advanced Video Codec
Format profile : [email protected]
Format settings : CABAC / 4 Ref Frames
Format settings, CABAC : Yes
Format settings, Reference frames : 4 frames
Codec ID : V_MPEG4/ISO/AVC
Bit rate mode : Constant
Bit rate : 7 908 kb/s
Nominal bit rate : 10 000 kb/s
Width : 1 920 pixels
Height : 816 pixels
Display aspect ratio : 2.35:1
Frame rate mode : Constant
Frame rate : 24.000 FPS
Color space : YUV
Chroma subsampling : 4:2:0
Bit depth : 8 bits
Scan type : Progressive
Bits/(Pixel*Frame) : 0.210
Stream size : 66.0 MiB (92%)
Default : Yes
Forced : No
Color range : Limited
Color primaries : BT.709
Transfer characteristics : BT.709
Matrix coefficients : BT.709

Audio
ID : 2
Format : E-AC-3
Format/Info : Enhanced AC-3
Commercial name : Dolby Digital Plus
Codec ID : A_EAC3
Bit rate mode : Constant
Bit rate : 640 kb/s
Channel(s) : 6 channels
Channel layout : L R C LFE Ls Rs
Sampling rate : 48.0 kHz
Frame rate : 31.250 FPS (1536 SPF)
Compression mode : Lossy
Delay relative to video : 16 ms
Stream size : 5.34 MiB (7%)
Language : Hindi
Service kind : Complete Main
Default : Yes
Forced : No

Text
ID : 3
Format : UTF-8
Codec ID : S_TEXT/UTF8
Codec ID/Info : UTF-8 Plain Text
Bit rate : 25 b/s
Count of elements : 6
Stream size : 224 Bytes (0%)
Title : eng
Language : English
Default : No
Forced : No

Screen Shot

G- Drive Download

01-School Wala Love (Student Of The Year 2) [By-DusIcTv].mkv – 71.3 MB

02-Kukkad Kamal Da (Student Of The Year 2) [By-DusIcTv].mkv – 51.5 MB

03-Amma Dekh Tera Munda Bigda Jaaye (Student Of The Year 2) [By-DusIcTv].mkv – 90.1 MB

04-Ek Nayee Subha (Student Of The Year 2) [By-DusIcTv].mkv – 88.8 MB

05-Dance Music 1 (Student Of The Year 2) [By-DusIcTv].mkv – 66.5 MB

06-Jatt Ludhiyane Da (Student Of The Year 2) [By-DusIcTv].mkv – 263.7 MB

07-Dance Music 2 (Student Of The Year 2) [By-DusIcTv].mkv – 220.9 MB

08-The Jawaani Song (Student Of The Year 2) [By-DusIcTv].mkv – 384.1 MB

09-Main Bhi Nahi Soya (Student Of The Year 2) [By-DusIcTv].mkv – 197.5 MB

10-Dance Music 3 (Student Of The Year 2) [By-DusIcTv].mkv – 130.1 MB

11-Fakira (Student Of The Year 2) [By-DusIcTv].mkv – 326.7 MB

12-Game Rehearsal (Student Of The Year 2) [By-DusIcTv].mkv – 207.0 MB

13-The Hook Up Song End Roll (Student Of The Year 2) [By-DusIcTv].mkv – 231.1 MB

0 0 vote
Article Rating
Subscribe
Notify of
guest
0 Comments
Inline Feedbacks
View all comments