SpiderMan Movie Collection (2002 – 2017) 1080p BluRay x264 Dual Audio [Hindi – English]

SPIDER-MAN-5-Movie-Collection-Blu-ray-Box-Set-Amazing-SpiderMan-1-5-Films

Complete name :SpiderMan Movie Collection (2002 – 2017) 1080p BluRay x264 Dual Audio [Hindi – English] ESub
Format : Matroska
Format version : Version 4
File size : 2.37 GiB
Duration : 2 h 19 min
Overall bit rate : 2 439 kb/s
Movie name : Spider-Man 3 2007 1080p BluRay x264 Dual Audio [Hindi 2.0 – English 2.0] ESub
Encoded date : UTC 2018-04-11 07:31:26
Writing application : mkvmerge v7.4.0 (‘Circles’) 64bit built on Dec 12 2014 12:19:56
Writing library : libebml v1.3.0 + libmatroska v1.4.1

Video
ID : 1
Format : AVC
Format/Info : Advanced Video Codec
Format profile : [email protected]
Format settings : CABAC / 5 Ref Frames
Format settings, CABAC : Yes
Format settings, Reference frames : 5 frames
Codec ID : V_MPEG4/ISO/AVC
Duration : 2 h 19 min
Bit rate : 2 119 kb/s
Width : 1 920 pixels
Height : 800 pixels
Display aspect ratio : 2.40:1
Frame rate mode : Constant
Frame rate : 23.976 (24000/1001) FPS
Color space : YUV
Chroma subsampling : 4:2:0
Bit depth : 8 bits
Scan type : Progressive
Bits/(Pixel*Frame) : 0.058
Stream size : 2.06 GiB (87%)
Title : Spider-Man 3 2007 1080p BluRay x264 Dual Audio [Hindi 2.0 – English 2.0] ESub [MW]
Writing library : x264 core 146 r2538 121396c
Encoding settings : cabac=1 / ref=5 / deblock=1:-3:-2 / analyse=0x3:0x133 / me=umh / subme=10 / psy=1 / psy_rd=1.00:0.00 / mixed_ref=1 / me_range=32 / chroma_me=1 / trellis=2 / 8x8dct=1 / cqm=0 / deadzone=21,11 / fast_pskip=0 / chroma_qp_offset=0 / threads=12 / lookahead_threads=1 / sliced_threads=0 / nr=0 / decimate=1 / interlaced=0 / bluray_compat=0 / constrained_intra=0 / bframes=6 / b_pyramid=2 / b_adapt=2 / b_bias=0 / direct=3 / weightb=0 / open_gop=0 / weightp=2 / keyint=250 / keyint_min=25 / scenecut=40 / intra_refresh=0 / rc_lookahead=60 / rc=2pass / mbtree=1 / bitrate=2119 / ratetol=1.0 / qcomp=0.80 / qpmin=10 / qpmax=51 / qpstep=4 / cplxblur=20.0 / qblur=0.5 / vbv_maxrate=62500 / vbv_bufsize=78125 / nal_hrd=none / filler=0 / ip_ratio=1.40 / aq=1:1.00
Language : English
Default : Yes
Forced : No

Audio #1
ID : 2
Format : AAC LC
Format/Info : Advanced Audio Codec Low Complexity
Codec ID : A_AAC-2
Duration : 2 h 19 min
Bit rate : 192 kb/s
Channel(s) : 2 channels
Channel layout : L R
Sampling rate : 48.0 kHz
Frame rate : 46.875 FPS (1024 SPF)
Compression mode : Lossy
Stream size : 191 MiB (8%)
Language : Hindi
Default : Yes
Forced : No

Audio #2
ID : 3
Format : AAC LC
Format/Info : Advanced Audio Codec Low Complexity
Codec ID : A_AAC-2
Duration : 2 h 19 min
Bit rate : 128 kb/s
Channel(s) : 2 channels
Channel layout : L R
Sampling rate : 48.0 kHz
Frame rate : 46.875 FPS (1024 SPF)
Compression mode : Lossy
Stream size : 127 MiB (5%)
Language : English
Default : No
Forced : No

Text
ID : 4
Format : UTF-8
Codec ID : S_TEXT/UTF8
Codec ID/Info : UTF-8 Plain Text
Duration : 2 h 8 min
Bit rate : 36 b/s
Count of elements : 1131
Stream size : 34.6 KiB (0%)
Language : English
Default : Yes
Forced : No

vlcsnap-2020-02-27-23h18m57s343vlcsnap-2020-02-27-23h18m50s183vlcsnap-2020-02-27-23h19m22s777vlcsnap-2020-02-27-23h19m40s466vlcsnap-2020-02-27-23h19m52s603vlcsnap-2020-02-27-23h20m07s447vlcsnap-2020-02-27-23h20m16s397

Note: For Download The File Plzz Create A Fake Account With Temp Mail And Download The Content..Everytime When Your Download Time Finish,Create Again A Fake Acc With Temp Mail…

1080p [Uloz.to +Download] ( 14.1Gb)

http://send.digital/files7

 

0 0 vote
Article Rating
Subscribe
Notify of
guest
1 Comment
Oldest
Newest Most Voted
Inline Feedbacks
View all comments
Rudh
Rudh
1 month ago

Pls upload the amazing Spider-Man 2 2014 1080p 60fps