Sonic.the.Hedgehog.2020.1080p.10bit.BluRay.8CH.x265.HEVC-PSA-Hin(Org)-Eng 1.5GB


Format : Matroska
Format version : Version 4
File size : 1.75 GiB
Duration : 1 h 38 min
Overall bit rate : 2 533 kb/s
Writing application : mkvmerge v46.0.0 (‘No Deeper Escape’) 64-bit
Writing library : libebml v1.3.10 + libmatroska v1.5.2

Video
ID : 1
Format : HEVC
Format/Info : High Efficiency Video Coding
Format profile : Main [email protected]@Main
Codec ID : V_MPEGH/ISO/HEVC
Duration : 1 h 38 min
Bit rate : 2 118 kb/s
Width : 1 920 pixels
Height : 808 pixels
Display aspect ratio : 2.40:1
Frame rate mode : Constant
Frame rate : 23.976 (24000/1001) FPS
Color space : YUV
Chroma subsampling : 4:2:0
Bit depth : 10 bits
Bits/(Pixel*Frame) : 0.057
Stream size : 1.46 GiB (84%)
Default : Yes
Forced : No

Audio #1
ID : 2
Format : AAC LC SBR
Format/Info : Advanced Audio Codec Low Complexity with Spectral Band Replication
Commercial name : HE-AAC
Format settings : Explicit
Codec ID : A_AAC-2
Duration : 1 h 38 min
Bit rate : 288 kb/s
Channel(s) : 8 channels
Channel layout : C L R Ls Rs Lw Rw LFE
Sampling rate : 48.0 kHz
Frame rate : 23.438 FPS (2048 SPF)
Compression mode : Lossy
Delay relative to video : 31 ms
Stream size : 203 MiB (11%)
Language : English
Default : Yes
Forced : No

Audio #2
ID : 4
Format : AAC LC
Format/Info : Advanced Audio Codec Low Complexity
Codec ID : A_AAC-2
Duration : 1 h 38 min
Bit rate : 125 kb/s
Channel(s) : 6 channels
Channel layout : C L R Ls Rs LFE
Sampling rate : 48.0 kHz
Frame rate : 46.875 FPS (1024 SPF)
Compression mode : Lossy
Stream size : 88.7 MiB (5%)
Title : Track 2 Hindi
Language : Hindi
Default : No
Forced : Yes

Text
ID : 3
Format : UTF-8
Codec ID : S_TEXT/UTF8
Codec ID/Info : UTF-8 Plain Text
Duration : 1 h 31 min
Bit rate : 65 b/s
Count of elements : 1277
Stream size : 43.9 KiB (0%)
Language : English
Default : Yes
Forced : No

Menu
00:00:00.000 : en:Chapter 01
00:03:52.190 : en:Chapter 02
00:09:32.989 : en:Chapter 03
00:12:45.973 : en:Chapter 04
00:18:09.421 : en:Chapter 05
00:22:20.797 : en:Chapter 06
00:27:33.693 : en:Chapter 07
00:35:09.107 : en:Chapter 08
00:41:37.328 : en:Chapter 09
00:51:24.623 : en:Chapter 10
01:01:04.827 : en:Chapter 11
01:04:38.374 : en:Chapter 12
01:10:20.341 : en:Chapter 13
01:18:54.020 : en:Chapter 14
01:25:38.716 : en:Chapter 15
01:30:27.296 : en:Chapter 16


vlcsnap-2020-05-27-15h57m55s792vlcsnap-2020-05-27-15h58m03s127vlcsnap-2020-05-27-15h58m07s270vlcsnap-2020-05-27-15h58m23s862vlcsnap-2020-05-27-15h58m27s621vlcsnap-2020-05-27-15h58m31s688vlcsnap-2020-05-27-15h58m54s742vlcsnap-2020-05-27-15h58m59s158vlcsnap-2020-05-27-15h59m09s772
Gdrive Single Link+Download
https://bit.ly/2ZG827J

0 0 vote
Article Rating
Subscribe
Notify of
guest
0 Comments
Inline Feedbacks
View all comments