Soldier 1998 WebRip 1080p Hindi DD 2.0 x264 ESub [Telly] -4.0 GB

Top 10 Bollywood Grossers Of 1998-Kuch Kuch Hota Hai To Bobby ...
Complete name : F:Soldier 1998 WebRip 1080p Hindi DD 2.0 x264 ESub [Telly]
Format : Matroska
Format version : Version 2
File size : 4.05 GiB
Duration : 2 h 35 min
Overall bit rate mode : Variable
Overall bit rate : 3 724 kb/s
Movie name : Soldier 1998 WebRip – mkvCinemas / Encoded By: mkvCinemas
Writing application : mkvmerge v5.7.0 (‘The Whirlwind’) built on Jul 8 2012 20:08:51
Writing library : libebml v1.2.3 + libmatroska v1.3.0
Video
ID : 1
Format : AVC
Format/Info : Advanced Video Codec
Format profile : [email protected]
Format settings : CABAC / 4 Ref Frames
Format settings, CABAC : Yes
Format settings, Reference frames : 4 frames
Muxing mode : Header stripping
Codec ID : V_MPEG4/ISO/AVC
Duration : 2 h 35 min
Bit rate mode : Variable
Bit rate : 3 500 kb/s
Maximum bit rate : 62.5 Mb/s
Width : 1 920 pixels
Height : 822 pixels
Display aspect ratio : 2.35:1
Frame rate mode : Constant
Frame rate : 25.000 FPS
Color space : YUV
Chroma subsampling : 4:2:0
Bit depth : 8 bits
Scan type : Progressive
Bits/(Pixel*Frame) : 0.089
Stream size : 3.73 GiB (92%)
Title : mkvCinemas
Writing library : x264 core 157 r2935 545de2f
Encoding settings : cabac=1 / ref=5 / deblock=1:-1:-1 / analyse=0x3:0x113 / me=umh / subme=9 / psy=1 / psy_rd=1.00:0.15 / mixed_ref=1 / me_range=16 / chroma_me=1 / trellis=1 / 8x8dct=1 / cqm=0 / deadzone=21,11 / fast_pskip=1 / chroma_qp_offset=-3 / threads=18 / lookahead_threads=1 / sliced_threads=0 / nr=0 / decimate=1 / interlaced=0 / bluray_compat=0 / constrained_intra=0 / bframes=5 / b_pyramid=1 / b_adapt=1 / b_bias=0 / direct=1 / weightb=1 / open_gop=0 / weightp=1 / keyint=250 / keyint_min=25 / scenecut=40 / intra_refresh=0 / rc_lookahead=40 / rc=2pass / mbtree=1 / bitrate=3500 / ratetol=1.0 / qcomp=0.60 / qpmin=0 / qpmax=69 / qpstep=4 / cplxblur=20.0 / qblur=0.5 / vbv_maxrate=62500 / vbv_bufsize=78125 / nal_hrd=vbr / filler=0 / ip_ratio=1.40 / aq=1:1.00
Default : Yes
Forced : No
Duration_Source : General_Duration
Audio
ID : 2
Format : AC-3
Format/Info : Audio Coding 3
Commercial name : Dolby Digital
Muxing mode : Header stripping
Codec ID : A_AC3
Duration : 2 h 35 min
Bit rate mode : Constant
Bit rate : 224 kb/s
Channel(s) : 2 channels
Channel layout : L R
Sampling rate : 48.0 kHz
Frame rate : 31.250 FPS (1536 SPF)
Compression mode : Lossy
Stream size : 250 MiB (6%)
Title : mkvCinemas
Language : Hindi
Service kind : Complete Main
Default : Yes
Forced : No
Duration_Source : General_Duration
Text
ID : 3
Format : UTF-8
Codec ID : S_TEXT/UTF8
Codec ID/Info : UTF-8 Plain Text
Title : mkvCinemas
Language : English
Default : Yes
Forced : No


vlcsnap-2020-04-14-19h20m45s159vlcsnap-2020-04-14-19h20m52s854vlcsnap-2020-04-14-19h21m10s930vlcsnap-2020-04-14-19h21m16s953vlcsnap-2020-04-14-19h21m22s484vlcsnap-2020-04-14-19h21m31s134vlcsnap-2020-04-14-19h21m37s853vlcsnap-2020-04-14-19h21m44s743vlcsnap-2020-04-14-19h21m51s733vlcsnap-2020-04-14-19h22m04s753

Gdrive Single Link+Download
https://bit.ly/3bdrRpS

ULOZTO.NET SINGLE LINK+dOWNLOAD
https://bit.ly/3a84Ovd

 

0 0 vote
Article Rating
Subscribe
Notify of
guest
0 Comments
Inline Feedbacks
View all comments