Singam 3 (2017) (MUSIC VIDEOS ALBUM) Tamil 1080p WebHD AVC DDP 5.1 By-DusIcTv

General
Format : Matroska
Format version : Version 4
File size : 1.79 GB
Overall bit rate : 12.8 Mb/s
Encoded date : UTC 2019-10-13 07:12:10
Writing application : mkvmerge v36.0.0 (‘Is That Jazz?’) 64-bit
Writing library : libebml v1.3.9 + libmatroska v1.5.2

Video
ID : 1
Format : AVC
Format/Info : Advanced Video Codec
Format profile : [email protected]
Format settings : CABAC / 4 Ref Frames
Format settings, CABAC : Yes
Format settings, Reference frames : 4 frames
Format settings, GOP : N=1
Codec ID : V_MPEG4/ISO/AVC
Bit rate mode : Constant
Bit rate : 12.2 Mb/s
Nominal bit rate : 30.0 Mb/s
Width : 1 920 pixels
Height : 816 pixels
Display aspect ratio : 2.35:1
Frame rate mode : Constant
Frame rate : 24.000 FPS
Color space : YUV
Chroma subsampling : 4:2:0
Bit depth : 8 bits
Scan type : Progressive
Bits/(Pixel*Frame) : 0.325
Stream size : 436 MiB (95%)
Language : Tamil
Default : No
Forced : No
Color range : Limited
Color primaries : BT.709
Transfer characteristics : BT.709
Matrix coefficients : BT.709

Audio
ID : 2
Format : AC-3
Format/Info : Audio Coding 3
Commercial name : Dolby Digital
Codec ID : A_AC3
Bit rate mode : Constant
Bit rate : 640 kb/s
Channel(s) : 6 channels
Channel layout : L R C LFE Ls Rs
Sampling rate : 48.0 kHz
Frame rate : 31.250 FPS (1536 SPF)
Bit depth : 16 bits
Compression mode : Lossy
Stream size : 22.9 MiB (5%)
Title : AC3 5.1 @ 640 Kbps – Original
Language : Tamil
Service kind : Complete Main
Default : No
Forced : No

Text
ID : 3
Format : VobSub
Muxing mode : zlib
Codec ID : S_VOBSUB
Codec ID/Info : Picture based subtitle format used on DVDs
Bit rate : 11.0 kb/s
Count of elements : 67
Stream size : 391 KiB (0%)
Language : English
Default : No
Forced : No


01-S3 Vettai Theme [By-DusIcTv].mkv – 244.85 MB
 https://new.gdtot.com/file/256744710


02-O Sone Sone [By-DusIcTv].mkv – 459.17 MB
 https://new.gdtot.com/file/481469627


03-Mudhal Murai [By-DusIcTv].mkv – 365.04 MB
 https://new.gdtot.com/file/382769040


04-He’s My Hero [By-DusIcTv].mkv – 102.45 MB
 https://new.gdtot.com/file/107422441


05-Wi Wi Wi WiFi [By-DusIcTv].mkv – 358.07 MB
 https://new.gdtot.com/file/375459907


06-Universal Cop [By-DusIcTv].mkv – 312.34 MB
 https://new.gdtot.com/file/327516191

 


0 0 vote
Article Rating
Subscribe
Notify of
guest
0 Comments
Inline Feedbacks
View all comments