Sillunu Oru Kaadhal (2006) – 1080P HD – DTS 4.10GB

7bc0bce68879c0986aebd805e092b276.md.jpg

Complete name :Sillunu Oru Kaadhal (2006) – 1080P HD – DTS – ESubs
Format : Matroska
Format version : Version 4
File size : 4.11 GiB
Duration : 2 h 55 min
Overall bit rate : 3 352 kb/s
Movie name : Sillunu oru kadhal – CINEMAS @[Team tamilrockers]
Encoded date : UTC 2016-12-09 14:05:24
Writing application : mkvmerge v9.5.0 (‘Quiet Fire’) 32bit
Writing library : libebml v1.3.4 + libmatroska v1.4.5

Video
ID : 1
Format : AVC
Format/Info : Advanced Video Codec
Format profile : [email protected]
Format settings : CABAC / 3 Ref Frames
Format settings, CABAC : Yes
Format settings, Reference frames : 3 frames
Codec ID : V_MPEG4/ISO/AVC
Duration : 2 h 55 min
Bit rate : 2 600 kb/s
Width : 1 904 pixels
Height : 816 pixels
Display aspect ratio : 2.35:1
Frame rate mode : Constant
Frame rate : 23.976 (24000/1001) FPS
Color space : YUV
Chroma subsampling : 4:2:0
Bit depth : 8 bits
Scan type : Progressive
Bits/(Pixel*Frame) : 0.070
Stream size : 3.19 GiB (77%)
Title : Sillunu Oru Kadhal
Writing library : x264 core 138 r2358 9e941d1
Encoding settings : cabac=1 / ref=3 / deblock=1:0:0 / analyse=0x3:0x113 / me=hex / subme=7 / psy=1 / psy_rd=1.00:0.15 / mixed_ref=1 / me_range=16 / chroma_me=1 / trellis=1 / 8x8dct=1 / cqm=0 / deadzone=21,11 / fast_pskip=1 / chroma_qp_offset=-3 / threads=6 / lookahead_threads=1 / sliced_threads=0 / nr=0 / decimate=1 / interlaced=0 / bluray_compat=0 / constrained_intra=0 / bframes=3 / b_pyramid=0 / b_adapt=1 / b_bias=0 / direct=1 / weightb=1 / open_gop=0 / weightp=2 / keyint=240 / keyint_min=23 / scenecut=40 / intra_refresh=0 / rc_lookahead=40 / rc=2pass / mbtree=1 / bitrate=2600 / ratetol=1.0 / qcomp=0.60 / qpmin=10 / qpmax=51 / qpstep=4 / cplxblur=20.0 / qblur=0.5 / vbv_maxrate=62500 / vbv_bufsize=78125 / nal_hrd=none / ip_ratio=1.40 / aq=1:1.00
Language : English
Default : Yes
Forced : No

Audio
ID : 2
Format : DTS
Format/Info : Digital Theater Systems
Codec ID : A_DTS
Duration : 2 h 54 min
Bit rate mode : Constant
Bit rate : 755 kb/s
Channel(s) : 6 channels
Channel layout : C L R Ls Rs LFE
Sampling rate : 48.0 kHz
Frame rate : 93.750 FPS (512 SPF)
Bit depth : 16 bits
Compression mode : Lossy
Delay relative to video : 34 s 501 ms
Stream size : 944 MiB (22%)
Title : Tamil DTS CINEMAS @[Team tamilrockers]
Default : Yes
Forced : No

Text
ID : 3
Format : UTF-8
Codec ID : S_TEXT/UTF8
Codec ID/Info : UTF-8 Plain Text
Duration : 2 h 52 min
Bit rate : 46 b/s
Count of elements : 1858
Stream size : 58.9 KiB (0%)
Title : CINEMAS @TEAM ~ Tamilrockers
Default : Yes
Forced : No

Menu
00:00:00.000 : en:Chapter 01
00:06:00.434 : en:Chapter 02
00:11:14.434 : en:Chapter 03
00:17:34.335 : en:Chapter 04
00:22:28.002 : en:Chapter 05
00:27:34.135 : en:Chapter 06
00:32:55.802 : en:Chapter 07
00:41:11.536 : en:Chapter 08
00:48:58.036 : en:Chapter 09
00:53:48.570 : en:Chapter 10
01:07:00.937 : en:Chapter 11
01:15:26.937 : en:Chapter 12
01:23:22.205 : en:Chapter 13
01:30:33.772 : en:Chapter 14
01:42:15.972 : en:Chapter 15
01:48:04.139 : en:Chapter 16
01:58:14.272 : en:Chapter 17
02:10:40.772 : en:Chapter 18
02:16:09.939 : en:Chapter 19
02:20:58.939 : en:Chapter 20
02:28:56.173 : en:Chapter 21
02:35:52.840 : en:Chapter 22
02:39:54.007 : en:Chapter 23
02:46:47.040 : en:Chapter 24
02:52:24.107 : en:Chapter 25

892e4b84c1d4e43d2e20ba7ed6aa9a20.gifc2d76f7e002960299b481f51f108e0dd.md.pnge5577825a9a480f5a1027224516544bb.md.png44762f9ba2aa08fe4e743d717c540b4e.md.png863f58bdf3b0dcab2a3b65339d622e49.md.pngcc327ca3a423b06e60173a09d692458d.md.pngca58149da67b02c06358e211552a16ba.md.png7a55470efbb0fabd81dc6cd184fb306e.md.pngba2cb4a114bd20e876e8a2b9681672c8.md.png
1080p [Google Drive+Download] ( 4.10Gb)

http://bit.ly/2TQ72cs

 

0 0 vote
Article Rating
Subscribe
Notify of
guest
0 Comments
Inline Feedbacks
View all comments