Sholay (1975) (MUSIC VIDEOS ALBUM) 1080p WebHD AVC DDP 5.1 By-DusIcTv

Sholay (1975) (MUSIC VIDEOS ALBUM) 1080p WebHD AVC DDP 5.1 By-DusIcTv

xxxxxxxxxxxxxxxxxxxxxxxxxxxxxxxxxxxxxxxxxxxxxxxxxxxxxxxxxxxxxxxxxxxxxxxxxxxxxxxxxxxxxxxxxxxxxxxxxxx
Sholay (1975) (MUSIC VIDEOS ALBUM) 1080p WebHD AVC DDP 5.1 By-DusIcTv
xxxxxxxxxxxxxxxxxxxxxxxxxxxxxxxxxxxxxxxxxxxxxxxxxxxxxxxxxxxxxxxxxxxxxxxxxxxxxxxxxxxxxxxxxxxxxxxxxxx

:details:

Format : Matroska
Format version : Version 4
File size : 1.12 GB
Overall bit rate : 6 268 kb/s
Encoded date : UTC 2019-09-07 05:42:05
Writing application : mkvmerge v36.0.0 (‘Is That Jazz?’) 32-bit
Writing library : libebml v1.3.9 + libmatroska v1.5.2

Video
ID : 1
Format : AVC
Format/Info : Advanced Video Codec
Format profile : [email protected]
Format settings : CABAC / 4 Ref Frames
Format settings, CABAC : Yes
Format settings, Reference frames : 4 frames
Codec ID : V_MPEG4/ISO/AVC
Bit rate : 5 626 kb/s
Width : 1 920 pixels
Height : 816 pixels
Display aspect ratio : 2.35:1
Frame rate mode : Constant
Frame rate : 25.000 FPS
Color space : YUV
Chroma subsampling : 4:2:0
Bit depth : 8 bits
Scan type : Progressive
Bits/(Pixel*Frame) : 0.144
Stream size : 246 MiB (90%)
Default : Yes
Forced : No

Audio
ID : 2
Format : E-AC-3
Format/Info : Enhanced AC-3
Commercial name : Dolby Digital Plus
Codec ID : A_EAC3
Bit rate mode : Constant
Bit rate : 640 kb/s
Channel(s) : 6 channels
Channel layout : L R C LFE Ls Rs
Sampling rate : 48.0 kHz
Frame rate : 31.250 FPS (1536 SPF)
Compression mode : Lossy
Delay relative to video : 24 ms
Stream size : 28.0 MiB (10%)
Language : Hindi
Service kind : Complete Main
Default : Yes
Forced : No

Text #1
ID : 3
Format : UTF-8
Codec ID : S_TEXT/UTF8
Codec ID/Info : UTF-8 Plain Text
Bit rate : 24 b/s
Count of elements : 22
Stream size : 866 Bytes (0%)
Language : English
Default : Yes
Forced : No

Text #2
ID : 4
Format : UTF-8
Codec ID : S_TEXT/UTF8
Codec ID/Info : UTF-8 Plain Text
Bit rate : 34 b/s
Count of elements : 22
Stream size : 1.20 KiB (0%)
Language : French
Default : No
Forced : No

Text #3
ID : 5
Format : UTF-8
Codec ID : S_TEXT/UTF8
Codec ID/Info : UTF-8 Plain Text
Bit rate : 40 b/s
Count of elements : 22
Stream size : 1.39 KiB (0%)
Language : German
Default : No
Forced : No

:screenshots:







:download2:
01-Yeh Dosti [By-DusIcTv].mkv   274.43 MB

https://thefileslocker.com/rqxu0hgmf1nl.html

02-Holi Ke Din [By-DusIcTv].mkv   273.45 MB

https://thefileslocker.com/tz3dk6hd6cmd.html

03-Mehbooba Mehbooba [By-DusIcTv].mkv   169.37 MB

https://thefileslocker.com/cld2ksaklpte.html

04-Koi Haseena [By-DusIcTv].mkv   178.82 MB

https://thefileslocker.com/22mytv16k9e4.html

05-Haa Jab Tak Hai Jaan [By-DusIcTv].mkv   255.51 MB

https://thefileslocker.com/uhvao6x98kjm.html

https://thefileslocker.com/5huphldzcqr5.html
https://desiupload.to/f/vbvix3-codkdf7235q66

0 0 vote
Article Rating
Subscribe
Notify of
guest
1 Comment
Oldest
Newest Most Voted
Inline Feedbacks
View all comments
Pankaj singh Bisht
Pankaj singh Bisht
1 year ago

Please upload Sholay (1975) (MUSIC VIDEOS ALBUM) 1080p Blu-Ray Untouched BD50 DDP 2.0 By-DusIcTv