Shola Aur Shabnam (1992) Hindi 1080p Untouched WebHD AVC {Music Video} ESuBS By-DusIcTv

Shola.Aur.Shabnam.(1992).Hindi.1080p.Untouched.WebHD.AVC.{Music.Video}.ESuBS.By-DusIcTv

:details:

Format                                   : Matroska
Format version                           : Version 4
File size                                : 2.44 GB
Overall bit rate mode                    : Variable
Overall bit rate                         : 13.8 Mb/s
Writing application   : mkvmerge v32.0.0 (‘Astral Progressions’) 32-bit
Writing library  : libebml v1.3.7 + libmatroska v1.5.0

Video
ID                                       : 1
Format                                   : AVC
Format/Info                              : Advanced Video Codec
Format profile                           : [email protected]
Format settings                          : CABAC / 4 Ref Frames
Format settings, CABAC                   : Yes
Format settings, RefFrames               : 4 frames
Codec ID                                 : V_MPEG4/ISO/AVC
Bit rate mode                            : Variable
Bit rate                                 : 13.6 Mb/s
Maximum bit rate                         : 15.0 Mb/s
Width                                    : 1 920 pixels
Height                                   : 800 pixels
Display aspect ratio                     : 2.40:1
Frame rate mode                          : Constant
Frame rate                               : 25.000 FPS
Color space                              : YUV
Chroma subsampling                       : 4:2:0
Bit depth                                : 8 bits
Scan type                                : Progressive
Bits/(Pixel*Frame)                       : 0.354
Stream size                              : 340 MiB (98%)
Default                                  : Yes
Forced                                   : No
Color range                              : Limited
Color primaries                          : BT.709
Transfer characteristics                 : BT.709
Matrix coefficients                      : BT.709

Audio
ID                                       : 2
Format                                   : E-AC-3
Format/Info                              : Enhanced AC-3
Commercial name                          : Dolby Digital Plus
Codec ID                                 : A_EAC3
Bit rate mode                            : Constant
Bit rate                                 : 224 kb/s
Channel(s)                               : 2 channels
Channel layout                           : L R
Sampling rate                            : 48.0 kHz
Frame rate                               : 31.250 FPS (1536 SPF)
Compression mode                         : Lossy
Delay relative to video                  : 24 ms
Stream size                              : 5.61 MiB (2%)
Title                                    : Hindi
Language                                 : Hindi
Service kind                             : Complete Main
Default                                  : No
Forced                                   : No

Text
ID                                       : 3
Format                                   : UTF-8
Codec ID                                 : S_TEXT/UTF8
Codec ID/Info                            : UTF-8 Plain Text
Bit rate                                 : 56 b/s
Count of elements                        : 37
Stream size                              : 1.21 KiB (0%)
Title                                    : English [SDH]
Language                                 : English
Default                                  : No
Forced                                   : No

:screens:








:download2:
01-Jane De Jane De Mujhe Jane De [By-DusIcTv].mkv   345.79 MB

https://thefileslocker.com/wpuayhy74hjh.html

02-Bole Bole Dil Mera Bole [By-DusIcTv].mkv   662.21 MB

https://thefileslocker.com/qm4aaqohl4tw.html

03-Gori Gori O Baanki Chhori [By-DusIcTv].mkv   440.12 MB

https://thefileslocker.com/egl36jv0x6mf.html

04-Tu Pagal Premi Awara [By-DusIcTv].mkv   572.67 MB

https://thefileslocker.com/thkha25kru5u.html

05-Tere Mere Pyar Mein [By-DusIcTv].mkv   486.78 MB

https://thefileslocker.com/qd03vhscb8q1.html

https://thefileslocker.com/3jnde00uzyyz.html
https://desiupload.to/f/pwig9f-vcm71c3o9sh8o

0 0 vote
Article Rating
Subscribe
Notify of
guest
0 Comments
Inline Feedbacks
View all comments