Sharato lagu 1080p True Hd Web Rip 3.8GB

Sharato Lagu (2018) - IMDb

Format : MPEG-4
Format profile : Base Media
Codec ID : isom (isom/iso2/avc1/mp41)
File size : 3.95 GiB
Duration : 2 h 11 min
Overall bit rate : 4 309 kb/s

Video
ID : 1
Format : AVC
Format/Info : Advanced Video Codec
Format profile : [email protected]
Format settings : CABAC / 4 Ref Frames
Format settings, CABAC : Yes
Format settings, Reference frames : 4 frames
Format settings, GOP : M=1, N=75
Codec ID : avc1
Codec ID/Info : Advanced Video Coding
Duration : 2 h 11 min
Duration_FirstFrame : 46 ms
Bit rate : 4 082 kb/s
Width : 1 920 pixels
Height : 1 080 pixels
Display aspect ratio : 16:9
Frame rate mode : Constant
Frame rate : 25.000 FPS
Color space : YUV
Chroma subsampling : 4:2:0
Bit depth : 8 bits
Scan type : Progressive
Bits/(Pixel*Frame) : 0.079
Stream size : 3.76 GiB (95%)
Writing library : x264 core 152 r2851 ba24899
Encoding settings : cabac=1 / ref=4 / deblock=1:2:2 / analyse=0x3:0x113 / me=hex / subme=2 / psy=1 / psy_rd=1.00:0.00 / mixed_ref=1 / me_range=16 / chroma_me=1 / trellis=0 / 8x8dct=1 / cqm=0 / deadzone=21,11 / fast_pskip=1 / chroma_qp_offset=0 / threads=34 / lookahead_threads=8 / sliced_threads=0 / nr=0 / decimate=1 / interlaced=0 / bluray_compat=0 / constrained_intra=0 / bframes=0 / weightp=2 / keyint=75 / keyint_min=7 / scenecut=0 / intra_refresh=0 / rc_lookahead=40 / rc=abr / mbtree=1 / bitrate=4082 / ratetol=1.0 / qcomp=0.60 / qpmin=10 / qpmax=51 / qpstep=4 / ip_ratio=0.91 / aq=1:1.00
Tagged date : UTC 2019-04-19 10:03:51
Codec configuration box : avcC

Audio
ID : 2
Format : AAC LC
Format/Info : Advanced Audio Codec Low Complexity
Codec ID : mp4a-40-2
Duration : 2 h 11 min
Duration_LastFrame : -14 ms
Bit rate mode : Constant
Bit rate : 204 kb/s
Channel(s) : 2 channels
Channel layout : L R
Sampling rate : 44.1 kHz
Frame rate : 43.066 FPS (1024 SPF)
Compression mode : Lossy
Stream size : 192 MiB (5%)
Default : Yes

vlcsnap-2020-06-12-21h07m11s819vlcsnap-2020-06-12-21h07m18s303vlcsnap-2020-06-12-21h07m33s167vlcsnap-2020-06-12-21h07m47s061vlcsnap-2020-06-12-21h07m53s064vlcsnap-2020-06-12-21h08m10s872vlcsnap-2020-06-12-21h08m21s328vlcsnap-2020-06-12-21h08m15s948
Gdrive Single Link+Download
https://bit.ly/2C6bGhD

PandaFiles Single Link+Download
https://bit.ly/2XWrb3P

0 0 vote
Article Rating
Subscribe
Notify of
guest
0 Comments
Inline Feedbacks
View all comments