Shaapit The Cursed (2010) 1080p HD-Rip H264 DDP 5.1 By-DusIcTv 4Gb

Shaapit: The Cursed (2010) - IMDb

Format : Matroska
Format version : Version 4
File size : 3.45 GiB
Duration : 2 h 21 min
Overall bit rate : 3 499 kb/s

Video
ID : 1
Format : AVC
Format/Info : Advanced Video Codec
Format profile : [email protected]
Format settings : 4 Ref Frames
Format settings, CABAC : No
Format settings, Reference frames : 4 frames
Codec ID : V_MPEG4/ISO/AVC
Duration : 2 h 21 min
Bit rate : 2 831 kb/s
Width : 1 920 pixels
Height : 816 pixels
Display aspect ratio : 2.35:1
Frame rate mode : Constant
Frame rate : 24.000 FPS
Standard : MAC
Color space : YUV
Chroma subsampling : 4:2:0
Bit depth : 8 bits
Scan type : Progressive
Bits/(Pixel*Frame) : 0.075
Stream size : 2.82 GiB (82%)
Title : DusIcTV Present
Writing library : x264 core 157 r2969 d4099dd
Language : Hindi
Default : Yes
Forced : No
Color range : Limited
Color primaries : Generic film
Transfer characteristics : PQ
Matrix coefficients : BT.2020 non-constant

Audio
ID : 2
Format : E-AC-3
Format/Info : Enhanced AC-3
Commercial name : Dolby Digital Plus
Codec ID : A_EAC3
Duration : 2 h 21 min
Bit rate mode : Constant
Bit rate : 640 kb/s
Channel(s) : 6 channels
Channel layout : L R C LFE Ls Rs
Sampling rate : 48.0 kHz
Frame rate : 31.250 FPS (1536 SPF)
Compression mode : Lossy
Stream size : 646 MiB (18%)
Title : DusIcTV Present (DDP 5.1)
Language : Hindi
Service kind : Complete Main
Default : Yes
Forced : No

Gdrive Single Link+Download
https://bit.ly/2YIZeh1

5 1 vote
Article Rating
Subscribe
Notify of
guest
2 Comments
Oldest
Newest Most Voted
Inline Feedbacks
View all comments
Faiz Khan
Faiz Khan
17 days ago

Shaapit Movie Link Not Available Plz Fixed

Faiz Khan
Faiz Khan
17 days ago

Shaapit Movie Link Not Available Plz Fixed New Link Add