Seeru (2020) [Tamil – 1080p HDRip – x264 – 2.4GB

7c914bef2009fcb0983d00d2c99536b1.jpg

Complete name :Seeru (2020) Tamil – 1080p HDRip – x264 – 2.4GB.mkv
Format : Matroska
Format version : Version 4
File size : 2.45 GiB
Duration : 2 h 1 min
Overall bit rate : 2 886 kb/s
Movie name : www.TamilRockers.ws
Encoded date : UTC 2020-03-05 23:07:30
Writing application : mkvmerge v7.8.0 (‘River Man’) 64bit built on Mar 27 2015 16:31:37
Writing library : libebml v1.3.1 + libmatroska v1.4.2

Video
ID : 1
Format : AVC
Format/Info : Advanced Video Codec
Format profile : [email protected]
Format settings : CABAC / 4 Ref Frames
Format settings, CABAC : Yes
Format settings, Reference frames : 4 frames
Codec ID : V_MPEG4/ISO/AVC
Duration : 2 h 1 min
Bit rate : 2 554 kb/s
Width : 1 920 pixels
Height : 894 pixels
Display aspect ratio : 2.148
Frame rate mode : Constant
Frame rate : 24.000 FPS
Color space : YUV
Chroma subsampling : 4:2:0
Bit depth : 8 bits
Scan type : Progressive
Bits/(Pixel*Frame) : 0.062
Stream size : 2.15 GiB (88%)
Title : www.TamilRockers.ws
Writing library : x264 core 155 r2901 7d0ff22
Encoding settings : cabac=1 / ref=1 / deblock=1:0:0 / analyse=0x1:0x1 / me=dia / subme=1 / psy=1 / psy_rd=1.00:0.00 / mixed_ref=0 / me_range=16 / chroma_me=1 / trellis=0 / 8x8dct=0 / cqm=0 / deadzone=21,11 / fast_pskip=1 / chroma_qp_offset=0 / threads=28 / lookahead_threads=4 / sliced_threads=0 / nr=0 / decimate=1 / interlaced=0 / bluray_compat=0 / constrained_intra=0 / bframes=3 / b_pyramid=2 / b_adapt=1 / b_bias=0 / direct=1 / weightb=1 / open_gop=0 / weightp=1 / keyint=240 / keyint_min=24 / scenecut=40 / intra_refresh=0 / rc=abr / mbtree=0 / bitrate=2554 / ratetol=1.0 / qcomp=0.60 / qpmin=0 / qpmax=69 / qpstep=4 / ip_ratio=1.40 / pb_ratio=1.30 / aq=1:1.00
Default : Yes
Forced : No
Color range : Limited
Color primaries : BT.601 NTSC
Transfer characteristics : BT.709
Matrix coefficients : BT.601

Audio
ID : 2
Format : AAC LC
Format/Info : Advanced Audio Codec Low Complexity
Codec ID : A_AAC-2
Duration : 2 h 1 min
Bit rate : 353 kb/s
Channel(s) : 2 channels
Channel layout : L R
Sampling rate : 48.0 kHz
Frame rate : 46.875 FPS (1024 SPF)
Compression mode : Lossy
Delay relative to video : -83 ms
Stream size : 310 MiB (12%)
Title : www.TamilRockers.ws
Default : Yes
Forced : No

38f36afc134a69367fdda0b830e26e83.md.png144918abbcd12d9daa9f27a2941920b7.md.png746d37343d8259fa0a0f1bbc21ae7feb.md.pngb7c0c80ae9f3e5d6fca8d2cedf3d40ef.md.png6048538f0fe0ece665defc08f6be72b0.md.png

1080p [Google Drive+Download] ( 2.5Gb)

http://bit.ly/38yLtT6

 

0 0 vote
Article Rating
Subscribe
Notify of
guest
0 Comments
Inline Feedbacks
View all comments