Secret Superstar (2017) (MUSIC VIDEO ALBUM) Untouched – BD50 TrueHD 5.1 ESuBS

Video
ID : 4113 (0x1011)
Menu ID : 1 (0x1)
Format : AVC
Format/Info : Advanced Video Codec
Format profile : [email protected]
Format settings : CABAC / 4 Ref Frames
Format settings, CABAC : Yes
Format settings, RefFrames : 4 frames
Codec ID : 27
Duration : 4 min 14 s
Bit rate mode : Constant
Bit rate : 39.2 Mb/s
Nominal bit rate : 34.0 Mb/s
Width : 1 920 pixels
Height : 1 080 pixels
Display aspect ratio : 16:9
Frame rate : 24.000 FPS
Standard : NTSC
Color space : YUV
Chroma subsampling : 4:2:0
Bit depth : 8 bits
Scan type : Progressive
Bits/(Pixel*Frame) : 0.787
Stream size : 1.16 GiB (94%)
Color range : Limited
Color primaries : BT.709
Transfer characteristics : BT.709
Matrix coefficients : BT.709

Audio
ID : 4352 (0x1100)
Menu ID : 1 (0x1)
Format : AC-3
Format/Info : Audio Coding 3
Commercial name : Dolby Digital
Muxing mode : Stream extension
Codec ID : 131
Duration : 4 min 14 s
Bit rate mode : Variable
Bit rate : 640 kb/s
Maximum bit rate : 5 538 kb/s
Channel(s) : 6 channels
Channel layout : L R C LFE Ls Rs
Sampling rate : 96.0 kHz / 48.0 kHz
Frame rate : 31.250 FPS (1536 SPF)
Bit depth : 16 bits
Compression mode : Lossy
Delay relative to video : -99 ms
Stream size : 19.4 MiB (2%)
Service kind : Complete Main


81f515a215c4e9430a7154fe038421a3.jpg
f45e1f15562bbd70de9d0368765c4e37.jpg
b01c284ed2c55789c9dbe6b1c1c0cd8f.jpg
374d43798d16bbc120d93bcf82eb5a45.jpg
ab74a35b9670da117d2a115bd8d3d5b1.jpg
e808fab790e210a89dbb965d881e4865.jpg
d322bc749f4916cdaab30c3e2e7096c6.jpg

01-Sapne Re [TeaM DuS].m2ts – 589.4 MB

02-Gudgudi [TeaM DuS].m2ts – 625.6 MB

03-Main Kaun Hoon [TeaM DuS].m2ts – 1.1 GB

04-Meri Pyaari Ammi 1 [TeaM DuS].m2ts – 1.0 GB

05-Sexy Baliye [TeaM DuS].m2ts – 264.9 MB

06-Nachdi Phira [TeaM DuS].m2ts – 1.2 GB

07-O Re Manwa [TeaM DuS].m2ts – 598.9 MB

08-Meri Pyaari Ammi 2 [TeaM DuS].m2ts – 343.0 MB

09-Sexy Baliye End Roll [TeaM DuS].m2ts – 744.6 MB

10-Nachdi Phira End Roll [TeaM DuS].m2ts – 179.2 MB

0 0 vote
Article Rating
Subscribe
Notify of
guest
1 Comment
Oldest
Newest Most Voted
Inline Feedbacks
View all comments
Tariq 806
Tariq 806
1 year ago

I have this song on my laptop. Dear Sir, please upload another song