Salaam-E-Ishq (2007) Hindi 1080p Untouched WebHD AVC DD Plus 2.0 {Music Video} ESuBS By-DusIcTv

General
Format                                   : Matroska
Format version                           : Version 4
File size                                : 3.26 GB
Overall bit rate                         : 12.1 Mb/s
Encoded date                             : UTC 2019-06-24 09:59:15
Writing application                      : mkvmerge v33.1.0 (‘Primrose’) 64-bit
Writing library                          : libebml v1.3.7 + libmatroska v1.5.0

Video
ID                                       : 1
Format                                   : AVC
Format/Info                              : Advanced Video Codec
Format profile                           : [email protected]
Format settings                          : CABAC / 4 Ref Frames
Format settings, CABAC                   : Yes
Format settings, Reference frames        : 4 frames
Codec ID                                 : V_MPEG4/ISO/AVC
Bit rate                                 : 11.9 Mb/s
Width                                    : 1 920 pixels
Height                                   : 816 pixels
Display aspect ratio                     : 2.35:1
Frame rate mode                          : Constant
Frame rate                               : 24.000 FPS
Color space                              : YUV
Chroma subsampling                       : 4:2:0
Bit depth                                : 8 bits
Scan type                                : Progressive
Bits/(Pixel*Frame)                       : 0.316
Stream size                              : 613 MiB (98%)
Title                                    : [By-DusIcTv]
Language                                 : English
Default                                  : Yes
Forced                                   : No

Audio
ID                                       : 2
Format                                   : AAC LC
Format/Info                              : Advanced Audio Codec Low Complexity
Codec ID                                 : A_AAC-2
Bit rate                                 : 192 kb/s
Channel(s)                               : 2 channels
Channel layout                           : L R
Sampling rate                            : 48.0 kHz
Frame rate                               : 46.875 FPS (1024 SPF)
Compression mode                         : Lossy
Delay relative to video                  : 11 ms
Stream size                              : 9.89 MiB (2%)
Title                                    : [By-DusIcTv]
Language                                 : Hindi
Default                                  : Yes
Forced                                   : No

G- Drive Download

01-Salaam-E-Ishq 1 [By-DusIcTv].mkv – 622.7 MB

02-Saiyaan Re [By-DusIcTv].mkv – 471.7 MB

03-Babuji [By-DusIcTv].mkv – 316.0 MB

04-Salaam-E-Ishq 2 [By-DusIcTv].mkv – 705.1 MB

05-Tenu Leke [By-DusIcTv].mkv – 381.4 MB

06-Ya Rabba 1 [By-DusIcTv].mkv – 318.0 MB

07-Ya Rabba 2 [By-DusIcTv].mkv – 462.0 MB

08-Ya Rabba 3 [By-DusIcTv].mkv – 66.2 MB

0 0 vote
Article Rating
Subscribe
Notify of
guest
1 Comment
Oldest
Newest Most Voted
Inline Feedbacks
View all comments
Mehedi Hasan
Mehedi Hasan
1 year ago

Thanks For Upload….