Sadak (1991) (MUSIC VIDEOS ALBUM) 1080p WebHD AVC DDP 2.0 By-DusIcTv

Sadak (1991) (MUSIC VIDEOS ALBUM) 1080p WebHD AVC DDP 2.0 By-DusIcTv

:details:

Format                         : Matroska
Format version                 : Version 4
File size                      : 3.25 GB
Overall bit rate               : 14.2 Mb/s
Writing library : libebml v1.3.6 + libmatroska v1.4.9

Video
ID                             : 1
Format                         : AVC
Format/Info                    : Advanced Video Codec
Format profile                 : [email protected]
Format settings                : CABAC / 4 Ref Frames
Format settings, CABAC         : Yes
Format settings, ReFrames      : 4 frames
Codec ID                       : V_MPEG4/ISO/AVC
Bit rate                       : 13.9 Mb/s
Width                          : 1 920 pixels
Height                         : 816 pixels
Display aspect ratio           : 2.35:1
Frame rate mode                : Constant
Frame rate                     : 25.000 FPS
Color space                    : YUV
Chroma subsampling             : 4:2:0
Bit depth                      : 8 bits
Scan type                      : Progressive
Bits/(Pixel*Frame)             : 0.356
Stream size                    : 554 MiB (98%)
Default                        : Yes
Forced                         : No
Color range                    : Limited
Color primaries                : BT.709
Transfer characteristics       : BT.709
Matrix coefficients            : BT.709

Audio
ID                             : 2
Format                         : E-AC-3
Format/Info                    : Enhanced AC-3
Commercial name                : Dolby Digital Plus
Codec ID                       : A_EAC3
Bit rate mode                  : Constant
Bit rate                       : 224 kb/s
Channel(s)                     : 2 channels
Channel layout                 : L R
Sampling rate                  : 48.0 kHz
Frame rate                     : 31.250 FPS (1536 SPF)
Compression mode               : Lossy
Delay relative to video        : 8 ms
Stream size                    : 8.90 MiB (2%)
Title                          : Hindi
Language                       : Hindi
Service kind                   : Complete Main
Default                        : No
Forced                         : No

:screenshots:














:download2:
01-Tumhein Apna Banaane Ki [By-DusIcTv].mkv   563.05 MB

https://thefileslocker.com/wwnsd76dswoa.html

02-Hum Tere Bin Kahi Rah [By-DusIcTv].mkv   757.87 MB

https://thefileslocker.com/qfkbk5d2fpzz.html

03-Zamaane Ke Dekhe [By-DusIcTv].mkv   286.45 MB

https://thefileslocker.com/sxt2jv2jqkc0.html

04-Jab Jab Pyar Pe [By-DusIcTv].mkv   646.35 MB

https://thefileslocker.com/4t5qk4ukvryz.html

05-Rehne Ko Ghar Nahi [By-DusIcTv].mkv   430.66 MB

https://thefileslocker.com/e0jeiqlwgmps.html

06-Tak Dhin Dhin Tak [By-DusIcTv].mkv   504.60 MB

https://thefileslocker.com/c83ozh6b998y.html

07-Tumhein Apna Banaane Ki (End) [By-DusIcTv].mkv   149.42 MB

https://thefileslocker.com/rr0shj39gfm3.html

https://thefileslocker.com/3z2hi5t6gg2l.html
https://desiupload.to/f/zxmqdr-ajoso9onvyees

0 0 vote
Article Rating
Subscribe
Notify of
guest
0 Comments
Inline Feedbacks
View all comments