Sadak (1991) Hindi 1080p Untouched WebHD AVC DD Plus 2.0 {Music Video}

Format                         : Matroska
Format version                 : Version 4
File size                      : 3.25 GB
Overall bit rate               : 14.2 Mb/s
Writing library : libebml v1.3.6 + libmatroska v1.4.9

Video
ID                             : 1
Format                         : AVC
Format/Info                    : Advanced Video Codec
Format profile                 : [email protected]
Format settings                : CABAC / 4 Ref Frames
Format settings, CABAC         : Yes
Format settings, ReFrames      : 4 frames
Codec ID                       : V_MPEG4/ISO/AVC
Bit rate                       : 13.9 Mb/s
Width                          : 1 920 pixels
Height                         : 816 pixels
Display aspect ratio           : 2.35:1
Frame rate mode                : Constant
Frame rate                     : 25.000 FPS
Color space                    : YUV
Chroma subsampling             : 4:2:0
Bit depth                      : 8 bits
Scan type                      : Progressive
Bits/(Pixel*Frame)             : 0.356
Stream size                    : 554 MiB (98%)
Default                        : Yes
Forced                         : No
Color range                    : Limited
Color primaries                : BT.709
Transfer characteristics       : BT.709
Matrix coefficients            : BT.709

Audio
ID                             : 2
Format                         : E-AC-3
Format/Info                    : Enhanced AC-3
Commercial name                : Dolby Digital Plus
Codec ID                       : A_EAC3
Bit rate mode                  : Constant
Bit rate                       : 224 kb/s
Channel(s)                     : 2 channels
Channel layout                 : L R
Sampling rate                  : 48.0 kHz
Frame rate                     : 31.250 FPS (1536 SPF)
Compression mode               : Lossy
Delay relative to video        : 8 ms
Stream size                    : 8.90 MiB (2%)
Title                          : Hindi
Language                       : Hindi
Service kind                   : Complete Main
Default                        : No
Forced                         : No

ScreenShots

6b3b6a07aa716228327718bfe7e73b19.md.png
1333d03aa27bd7d790c73e3c8677cf2e.md.png
ba89fcaf145410031a5fafb5b3406c0b.md.png
aa2dea864382ea0f3ec5012007eb2f47.md.png
391fa9b57079bb4dbcc164de0eaa6191.md.png
848900f8e072add32871393780214165.md.png
f7291fa5289dbae11429d94a5fadb819.md.png
37cc4e5a3413b992112b29571a395dec.md.png
47976c277d7b82629115bef5f6bac6f9.md.png
e14457a786fd2a9b07cfecbfe095b8a0.md.png

{ G-drive } Download  Link { 3.25 GB }

0 0 vote
Article Rating
Subscribe
Notify of
guest
1 Comment
Oldest
Newest Most Voted
Inline Feedbacks
View all comments
Katper
Katper
1 year ago

files deleted, plz reupload