Saawariya (2007) BluRay x265 10-Bit 1080p DTS-HD 5.1 – | 7.55 GB | DB9 |

 


Media Info:

Format
Format version : Version 2
File size : 7.56 GiB
Duration : 2 h 17 min
Overall bit rate mode : Variable
Overall bit rate : 7 855 kb/s
Movie name : Saawariya.2007.BluRay.Remux.1080p.AVC.TrueHD.5.1-TEPES
Encoded date : UTC 2020-03-17 07:38:09
Writing application : DVDFab 11.0.6.5
Writing library : libebml v1.3.4 + libmatroska v1.4.5

Video
ID : 1
Format : HEVC
Format/Info : High Efficiency Video Coding
Format profile : Main [email protected]@Main
Codec ID : V_MPEGH/ISO/HEVC
Duration : 2 h 17 min
Bit rate : 4 791 kb/s
Width : 1 920 pixels
Height : 800 pixels
Display aspect ratio : 2.40:1
Frame rate mode : Constant
Frame rate : 23.976 (24000/1001) FPS
Color space : YUV
Chroma subsampling : 4:2:0
Bit depth : 10 bits
Bits/(Pixel*Frame) : 0.130
Stream size : 4.61 GiB (61%)
Default : Yes
Forced : No
Color range : Limited
Color primaries : BT.709
Transfer characteristics : BT.709
Matrix coefficients : BT.709

Audio
ID : 2
Format : DTS XLL
Format/Info : Digital Theater Systems
Commercial name : DTS-HD Master Audio
Codec ID : A_DTS
Duration : 2 h 17 min
Bit rate mode : Variable
Bit rate : 3 061 kb/s
Channel(s) : 6 channels
Channel layout : C L R Ls Rs LFE
Sampling rate : 48.0 kHz
Frame rate : 93.750 FPS (512 SPF)
Bit depth : 16 bits
Compression mode : Lossless
Stream size : 2.95 GiB (39%)
Default : Yes
Forced : No


Screenshots:

https://drive.klop.me/file/51c558e952

0 0 vote
Article Rating
Subscribe
Notify of
guest
2 Comments
Oldest
Newest Most Voted
Inline Feedbacks
View all comments
goku
goku
10 days ago

link dead bro
plz give gdtot link thsnks

goku
goku
Reply to  goku
8 days ago

bro pls update link