Saathiya (2002) Hindi 1080p WebHD AVC DDP 5.1 {Music Video} ESuBS By-DusIcTv

Saathiya (2002) Hindi 1080p WebHD AVC DDP 5.1 {Music Video} ESuBS By-DusIcTv

:details:

Format                         : Matroska
Format version                 : Version 4
File size                      : 2.59 GB
Overall bit rate               : 11.8 Mb/s
Writing application   : mkvmerge v34.0.0 (‘Sight and Seen’) 64-bit
Writing library  : libebml v1.3.7 + libmatroska v1.5.0

Video
ID                             : 1
Format                         : AVC
Format/Info                    : Advanced Video Codec
Format profile                 : [email protected]
Format settings                : CABAC / 4 Ref Frames
Format settings, CABAC         : Yes
Format settings, Reference fra : 4 frames
Codec ID                       : V_MPEG4/ISO/AVC
Bit rate                       : 11.2 Mb/s
Width                          : 1920 pixels
Height                         : 816 pixels
Display aspect ratio           : 2.35:1
Frame rate mode                : Constant
Frame rate                     : 23.976 (24000/1001) FPS
Color space                    : YUV
Chroma subsampling             : 4:2:0
Bit depth                      : 8 bits
Scan type                      : Progressive
Bits/(Pixel*Frame)             : 0.298
Stream size                    : 430 MiB (95%)
Title                          : DusIcTv
Default                        : Yes
Forced                         : No
Color range                    : Limited
Color primaries                : BT.709
Transfer characteristics       : BT.709
Matrix coefficients            : BT.709

Audio
ID                             : 2
Format                         : E-AC-3
Format/Info                    : Enhanced AC-3
Commercial name                : Dolby Digital Plus
Codec ID                       : A_EAC3
Bit rate mode                  : Constant
Bit rate                       : 640 kb/s
Channel(s)                     : 6 channels
Channel layout                 : L R C LFE Ls Rs
Sampling rate                  : 48.0 kHz
Frame rate                     : 31.250 FPS (1536 SPF)
Compression mode               : Lossy
Delay relative to video        : 25 ms
Stream size                    : 24.6 MiB (5%)
Title                          : DusIcTv
Language                       : Hindi
Service kind                   : Complete Main
Default                        : No
Forced                         : No

:screens:







:download2:
01-O Humdum Suniyo Re [By-DusIcTv].mkv   161.54 MB

https://thefileslocker.com/89pp14d02pc4.html

02-Saathiya [By-DusIcTv].mkv   455.15 MB

https://thefileslocker.com/88ec4qk923rq.html

03-Chalka Chalka Re [By-DusIcTv].mkv   513.65 MB

https://thefileslocker.com/n24u7b03zpg7.html

04-Mera Yaar Mila De [By-DusIcTv].mkv   352.52 MB

https://thefileslocker.com/5scgovd7owxq.html

05-Chupke Se [By-DusIcTv].mkv   379.70 MB

https://thefileslocker.com/49m654ik20zn.html

06-Naina Milaike [By-DusIcTv].mkv   125.84 MB

https://thefileslocker.com/7p087uklb5ce.html

07-Aye Udi Udi Udi [By-DusIcTv].mkv   317.96 MB

https://thefileslocker.com/brzs610yvqq7.html

08-Chori Pe Chori [By-DusIcTv].mkv   341.31 MB

https://thefileslocker.com/np6gc61gn95l.html

https://thefileslocker.com/lg9aa6notc6y.html
https://uptobox.com/4dqgei010bzf

0 0 vote
Article Rating
Subscribe
Notify of
guest
0 Comments
Inline Feedbacks
View all comments