Saaho (2019) (MUSIC VIDEOS ALBUM) 1080p Untouched WebHD AVC DDP 5.1 By-DusIcTv | G- Drive |

xxxxxxxxxxxxxxxxxxxxxxxxxxxxxxxxxxxxxxxxxxxxxxxxxxxxxxxxxxxxxxxxxxxxxxxxxxxxxxxxxxxxxxxxxxxxxxxxxxx
Saaho (2019) (MUSIC VIDEOS ALBUM) 1080p Untouched WebHD AVC DDP 5.1 By-DusIcTv
xxxxxxxxxxxxxxxxxxxxxxxxxxxxxxxxxxxxxxxxxxxxxxxxxxxxxxxxxxxxxxxxxxxxxxxxxxxxxxxxxxxxxxxxxxxxxxxxxxx

Media info
General
Format : Matroska
Format version : Version 4
File size : 852 MB
Overall bit rate mode : Variable
Overall bit rate : 6 931 kb/s
Encoded date : UTC 2019-12-07 18:27:37
Writing application : mkvmerge v41.0.0 (‘Smarra’) 64-bit
Writing library : libebml v1.3.9 + libmatroska v1.5.2

Video
ID : 1
Format : AVC
Format/Info : Advanced Video Codec
Format profile : [email protected]
Format settings : CABAC / 3 Ref Frames
Format settings, CABAC : Yes
Format settings, Reference frames : 3 frames
Codec ID : V_MPEG4/ISO/AVC
Bit rate mode : Variable
Bit rate : 6 289 kb/s
Maximum bit rate : 8 040 kb/s
Width : 1 920 pixels
Height : 1 080 pixels
Display aspect ratio : 16:9
Frame rate mode : Constant
Frame rate : 23.976 (24000/1001) FPS
Color space : YUV
Chroma subsampling : 4:2:0
Bit depth : 8 bits
Scan type : Progressive
Bits/(Pixel*Frame) : 0.127
Stream size : 131 MiB (91%)
Title : By-DusIcTv
Default : Yes
Forced : No

Audio
ID : 2
Format : E-AC-3
Format/Info : Enhanced AC-3
Commercial name : Dolby Digital Plus
Codec ID : A_EAC3
Bit rate mode : Constant
Bit rate : 640 kb/s
Channel(s) : 6 channels
Channel layout : L R C LFE Ls Rs
Sampling rate : 48.0 kHz
Frame rate : 31.250 FPS (1536 SPF)
Compression mode : Lossy
Delay relative to video : 4 ms
Stream size : 13.3 MiB (9%)
Title : By-DusIcTv
Language : Hindi
Service kind : Complete Main
Default : Yes
Forced : Yes

Text
ID : 3
Format : UTF-8
Codec ID : S_TEXT/UTF8
Codec ID/Info : UTF-8 Plain Text
Bit rate : 36 b/s
Count of elements : 34
Stream size : 661 Bytes (0%)
Title : By-DusIcTv
Language : English
Default : Yes
Forced : Yes

Note:  Request to all users / downloader / leechers , Please always make small contribution
with writing a decent comment,by liking post & at least seeding back for few days so
that we as team , can bring more & more ExCluSivE stuff for you guys.
HAPPY DOWNLOADING
~~Cheers~~

xxxxxxxxxxxxxxxxxxxxxxxxxxxxxxxxxxxxxxxxxxxxxxxxxxxxxxxxxxxxxxxxxxxxxxxxxxxxxxxxxxxxxxxxxxxxxxxxxxx

01-Psycho Saiyaan [By-DusIcTv].mkv – 123.3 MB

02-Enni Soni [By-DusIcTv].mkv – 143.9 MB

03-Bad Boy [By-DusIcTv].mkv – 143.7 MB

04-English Theme Song With Fight [By-DusIcTv].mkv – 208.8 MB

05-Baby Won’t You Tell Me [By-DusIcTv].mkv – 232.3 MB

0 0 vote
Article Rating
Subscribe
Notify of
guest
1 Comment
Oldest
Newest Most Voted
Inline Feedbacks
View all comments
waquas
waquas
1 year ago

bro audio codec available but no audio playback