Rog (2005) Hindi 1080p Untouched WebHD AVC {Music Video} ESuBS By-DusIcTv

xxxxxxxxxxxxxxxxxxxxxxxxxxxxxxxxxxxxxxxxxxxxxxxxxxxxxxxxxxxxxxx
Rog (2005) Hindi 1080p Untouched WebHD AVC {Music Video} ESuBS By-DusIcTv
xxxxxxxxxxxxxxxxxxxxxxxxxxxxxxxxxxxxxxxxxxxxxxxxxxxxxxxxxxxxxxx
Media info
General
Format : Matroska
Format version : Version 4
File size : 317 MiB
Overall bit rate : 2 076 kb/s
Encoded date : UTC 2019-08-09 14:36:06
Writing application : mkvmerge v35.0.0 (‘All The Love In The World’) 64-bit
Writing library : libebml v1.3.9 + libmatroska v1.5.2

Video
ID : 1
Format : AVC
Format/Info : Advanced Video Codec
Format profile : [email protected]
Format settings : CABAC / 4 Ref Frames
Format settings, CABAC : Yes
Format settings, Reference frames : 4 frames
Format settings, GOP : M=4, N=50
Codec ID : V_MPEG4/ISO/AVC
Bit rate : 1 977 kb/s
Width : 1 920 pixels
Height : 1 080 pixels
Display aspect ratio : 16:9
Frame rate mode : Constant
Frame rate : 25.000 FPS
Color space : YUV
Chroma subsampling : 4:2:0
Bit depth : 8 bits
Scan type : Progressive
Bits/(Pixel*Frame) : 0.038
Stream size : 31.6 MiB (95%)
Default : Yes
Forced : No

Audio
ID : 2
Format : AAC LC
Format/Info : Advanced Audio Codec Low Complexity
Codec ID : A_AAC-2
Bit rate : 96.0 kb/s
Channel(s) : 2 channels
Channel layout : L R
Sampling rate : 48.0 kHz
Frame rate : 46.875 FPS (1024 SPF)
Compression mode : Lossy
Delay relative to video : 11 ms
Stream size : 1.55 MiB (5%)
Default : Yes
Forced : No

 

Screen Shot

G- Drive Download

01-Maine Dil Se Kaha [By-DusIcTv].mkv – 33.2 MB


02-Tere Is Jahan Mein [By-DusIcTv].mkv – 67.2 MB


03-Maine Dil Se Kaha (II) [By-DusIcTv].mkv – 22.8 MB


04-Khoobsoorat [By-DusIcTv].mkv – 43.5 MB


05-Guzar Na Jaaye [By-DusIcTv].mkv – 70.3 MB


06-Maine Dil Se Kaha (III) [By-DusIcTv].mkv – 17.2 MB


07-Khoobsoorat (II) [By-DusIcTv].mkv – 20.7 MB


08-Guzar Na Jaaye (End Roll) [By-DusIcTv].mkv – 42.5 MB


 

0 0 vote
Article Rating
Subscribe
Notify of
guest
2 Comments
Oldest
Newest Most Voted
Inline Feedbacks
View all comments
Robbin Rajgonda
Robbin Rajgonda
1 year ago

Please upload Julie mega dhupia video songs