Robocop (2014) 1080p BluRay x264 {Dual Audio) {Hindi BD 5.1-Eng DTS 5.1} ESubs By~Hammer~

General
Format                                   : Matroska
Format version                           : Version 4
File size                                : 5.75 GiB
Duration                                 : 1 h 57 min
Overall bit rate                         : 7 012 kb/s
Movie name                               : Robocop (2014) 1080p BluRay x264 {Dual Audio) {Hindi BD 5.1-Eng DTS 5.1} ESubs By~Hammer~
Bit rate                                 : 5 000 kb/s
Width                                    : 1 920 pixels
Height                                   : 800 pixels
Display aspect ratio                     : 2.40:1
Frame rate mode                          : Constant
Frame rate                               : 23.976 (24000/1001) FPS
Title                                    : ~EncodeR~Hammer~
Default                                  : Yes
Forced                                   : No

Audio #1
Format                                   : AC-3
Format/Info                              : Audio Coding 3
Commercial name                          : Dolby Digital
Codec ID                                 : A_AC3
Duration                                 : 1 h 57 min
Bit rate mode                            : Constant
Bit rate                                 : 448 kb/s
Channel(s)                               : 6 channels
Channel layout                           : L R C LFE Ls Rs
Sampling rate                            : 48.0 kHz
Frame rate                               : 31.250 FPS (1536 SPF)
Compression mode                         : Lossy
Stream size                              : 376 MiB (6%)
Title                                    : Hindi Org BD 5.1 448 kbps By~Hammer~
Language                                 : Hindi
Default                                  : Yes
Forced                                   : Yes

Audio #2
Format                                   : DTS
Format/Info                              : Digital Theater Systems
Codec ID                                 : A_DTS
Duration                                 : 1 h 57 min
Bit rate mode                            : Constant
Bit rate                                 : 1 509 kb/s
Channel(s)                               : 6 channels
Channel layout                           : C L R Ls Rs LFE
Sampling rate                            : 48.0 kHz
Frame rate                               : 93.750 FPS (512 SPF)
Bit depth                                : 24 bits
Compression mode                         : Lossy
Stream size                              : 1.24 GiB (22%)
Title                                    : English DTS 5.1 1509 kbps By~Hammer~
Language                                 : English
Default                                  : No
Forced                                   : No

Text #1
Format                                   : PGS
Muxing mode                              : zlib
Codec ID                                 : S_HDMV/PGS
Codec ID/Info                            : Picture based subtitle format used on BDs/HD-DVDs
Duration                                 : 2 min 7 s
Bit rate                                 : 45.3 kb/s
Count of elements                        : 60
Stream size                              : 702 KiB (0%)
Title                                    : English PGS
Language                                 : English
Default                                  : Yes
Forced                                   : No

Text #2
Format                                   : PGS
Muxing mode                              : zlib
Codec ID                                 : S_HDMV/PGS
Codec ID/Info                            : Picture based subtitle format used on BDs/HD-DVDs
Duration                                 : 1 h 50 min
Bit rate                                 : 59.4 kb/s
Count of elements                        : 3140
Stream size                              : 47.1 MiB (1%)
Title                                    : English PGS
Language                                 : English
Default                                  : No
Forced                                   : No

Text #3
Format                                   : PGS
Muxing mode                              : zlib
Codec ID                                 : S_HDMV/PGS
Codec ID/Info                            : Picture based subtitle format used on BDs/HD-DVDs
Duration                                 : 1 h 51 min
Bit rate                                 : 65.2 kb/s
Count of elements                        : 3408
Stream size                              : 51.8 MiB (1%)
Title                                    : English PGS
Language                                 : English
Default                                  : No
Forced                                   : No

G- Drive Download 

The File Locker Download

0 0 vote
Article Rating
Subscribe
Notify of
guest
1 Comment
Oldest
Newest Most Voted
Inline Feedbacks
View all comments
Mehedi Hasan
Mehedi Hasan
1 year ago

Hello Sir. Can U Upload More Heart Touching Music Video Collection.. Please More Vol Upload