Riddick.2013.Extened.Cut.1080p.BluRay.x265 Hin-Eng 1.5GB

Riddick [Includes Digital Copy] [Blu-ray] [2013] - Best Buy

Format : Matroska
Format version : Version 4
File size : 1.70 GiB
Duration : 2 h 6 min
Overall bit rate mode : Variable
Overall bit rate : 1 916 kb/s
Encoded date : UTC 2020-05-20 07:58:28
Writing application : mkvmerge v46.0.0 (‘No Deeper Escape’) 64-bit
Writing library : libebml v1.3.10 + libmatroska v1.5.2

Video
ID : 1
Format : HEVC
Format/Info : High Efficiency Video Coding
Format profile : [email protected]@Main
Codec ID : V_MPEGH/ISO/HEVC
Duration : 2 h 6 min
Bit rate : 1 601 kb/s
Width : 1 920 pixels
Height : 800 pixels
Display aspect ratio : 2.40:1
Frame rate mode : Constant
Frame rate : 23.976 (24000/1001) FPS
Color space : YUV
Chroma subsampling : 4:2:0
Bit depth : 8 bits
Bits/(Pixel*Frame) : 0.043
Stream size : 1.42 GiB (84%)
Default : Yes
Forced : No
Color range : Limited
Color primaries : BT.709
Transfer characteristics : BT.709
Matrix coefficients : BT.709

Audio #1
ID : 2
Format : AAC LC SBR
Format/Info : Advanced Audio Codec Low Complexity with Spectral Band Replication
Commercial name : HE-AAC
Format settings : Explicit
Codec ID : A_AAC-2
Duration : 2 h 6 min
Bit rate : 192 kb/s
Channel(s) : 6 channels
Channel layout : C L R Ls Rs LFE
Sampling rate : 48.0 kHz
Frame rate : 23.438 FPS (2048 SPF)
Compression mode : Lossy
Delay relative to video : -4 ms
Stream size : 174 MiB (10%)
Default : Yes
Forced : No

Audio #2
ID : 4
Format : MPEG Audio
Format version : Version 1
Format profile : Layer 3
Format settings : Joint stereo / MS Stereo
Codec ID : A_MPEG/L3
Codec ID/Hint : MP3
Duration : 2 h 6 min
Bit rate mode : Variable
Bit rate : 121 kb/s
Nominal bit rate : 128 kb/s
Channel(s) : 2 channels
Sampling rate : 48.0 kHz
Frame rate : 41.667 FPS (1152 SPF)
Compression mode : Lossy
Delay relative to video : -7 ms
Stream size : 110 MiB (6%)
Title : Visit – MoviesRush.in
Writing library : LAME3.99r
Encoding settings : -m j -V 4 -q 3 -lowpass 17 –abr 128
Language : Hindi
Default : No
Forced : No

Text
ID : 3
Format : UTF-8
Codec ID : S_TEXT/UTF8
Codec ID/Info : UTF-8 Plain Text
Duration : 2 h 1 min
Bit rate : 31 b/s
Count of elements : 894
Stream size : 28.1 KiB (0%)
Default : Yes
Forced : No


vlcsnap-2020-05-21-16h50m50s284vlcsnap-2020-05-21-16h51m12s802vlcsnap-2020-05-21-16h51m17s038vlcsnap-2020-05-21-16h51m21s599vlcsnap-2020-05-21-16h51m26s683vlcsnap-2020-05-21-16h51m34s899vlcsnap-2020-05-21-16h51m55s918vlcsnap-2020-05-21-16h52m07s991
Gdrive Single Link+Download
https://bit.ly/2ZmqXnW

0 0 vote
Article Rating
Subscribe
Notify of
guest
0 Comments
Inline Feedbacks
View all comments