Riddick (2013) EXTENDED 1080p BluRay x264 Dual Audio [ Hindi DD 5.1- Eng DTS 5.1] ESubsBy~Hammer~

Format : Matroska
Format version : Version 4
File size : 9.90 GiB
Duration : 2 h 6 min
Overall bit rate : 11.2 Mb/s
Movie name : Riddick (2013) EXTENDED 1080p BluRay x264 Dual Audio [ Hindi DD 5.1- Eng DTS 5.1] ESubsBy~Hammer~
Encoded date : UTC 2018-03-31 16:31:44
Writing application : mkvmerge v21.0.0 (‘Tardigrades Will Inherit The Earth’) 64-bit
Writing library : libebml v1.3.5 + libmatroska v1.4.8

Video
ID : 1
Format : AVC
Format/Info : Advanced Video Codec
Format profile : [email protected]
Format settings : CABAC / 5 Ref Frames
Format settings, CABAC : Yes
Format settings, ReFrames : 5 frames
Codec ID : V_MPEG4/ISO/AVC
Duration : 2 h 6 min
Bit rate : 9 220 kb/s
Width : 1 920 pixels
Height : 800 pixels
Display aspect ratio : 2.40:1
Frame rate mode : Constant
Frame rate : 23.976 FPS
Color space : YUV
Chroma subsampling : 4:2:0
Bit depth : 8 bits
Scan type : Progressive
Bits/(Pixel*Frame) : 0.250
Stream size : 8.16 GiB (82%)

Language : English
Default : Yes
Forced : No

Audio #1
ID : 2
Format : DTS
Format/Info : Digital Theater Systems
Codec ID : A_DTS
Duration : 2 h 6 min
Bit rate mode : Constant
Bit rate : 1 509 kb/s
Channel(s) : 6 channels
Channel layout : C L R Ls Rs LFE
Sampling rate : 48.0 kHz
Frame rate : 93.750 FPS (512 SPF)
Bit depth : 24 bits
Compression mode : Lossy
Stream size : 1.34 GiB (14%)
Title : DTS ENG By~Hammer~
Language : English
Default : No
Forced : No

Audio #2
ID : 4
Format : AC-3
Format/Info : Audio Coding 3
Commercial name : Dolby Digital
Codec ID : A_AC3
Duration : 2 h 6 min
Bit rate mode : Constant
Bit rate : 448 kb/s
Channel(s) : 6 channels
Channel layout : L R C LFE Ls Rs
Sampling rate : 48.0 kHz
Frame rate : 31.250 FPS (1536 SPF)
Bit depth : 16 bits
Compression mode : Lossy
Stream size : 406 MiB (4%)
Title : By~Hammer~
Language : Hindi
Service kind : Complete Main
Default : Yes
Forced : No

Text
ID : 3
Format : UTF-8
Codec ID : S_TEXT/UTF8
Codec ID/Info : UTF-8 Plain Text
Duration : 2 h 1 min
Bit rate : 36 b/s
Count of elements : 1184
Stream size : 32.1 KiB (0%)
Language : English
Default : No
Forced : No

Menu
00:00:00.000 : en:00:00:00.000
00:05:35.418 : en:00:05:35.418
00:12:10.521 : en:00:12:10.521
00:23:27.364 : en:00:23:27.364
00:27:56.425 : en:00:27:56.425
00:32:11.221 : en:00:32:11.221
00:38:03.698 : en:00:38:03.698
00:44:20.283 : en:00:44:20.283
00:48:40.876 : en:00:48:40.876
00:56:19.668 : en:00:56:19.668
01:01:16.673 : en:01:01:16.673
01:07:35.093 : en:01:07:35.093
01:15:23.436 : en:01:15:23.436
01:19:58.836 : en:01:19:58.836
01:26:51.832 : en:01:26:51.832
01:31:27.107 : en:01:31:27.107
01:39:32.717 : en:01:39:32.717
01:45:32.701 : en:01:45:32.701
01:53:45.652 : en:01:53:45.652
02:02:56.160 : en:02:02:56.160

5bb86c887d946b8e00a10742eca85ff7.jpg
f0f37256cb3b17626110bc9755511d02.jpg
6c50297b297dde09e24a98f1d32d2ee1.jpg
ab9ae6e360f2d6fd7497fa532c1cbfdc.jpg
039dc1a6cd45d89315f2d19ac1bb80b0.jpg

 

Download [ 9.39 GB] {The File locker}

Download [ 9.39 GB] {G- Drive}

0 0 vote
Article Rating
Subscribe
Notify of
guest
0 Comments
Inline Feedbacks
View all comments