Remo (2016).ITunes.(1080p x264.DD 2.0-DD5.1 ESub – 5.4GB

remo-first-look.jpg

Format : MPEG-AVCHDMP4
Format profile : Base Media / Version 2
Codec ID : mp42 (mp42/isom)
File size : 5.45 GiB
Duration : 2 h 25 min
Overall bit rate mode : Variable
Overall bit rate : 5 361 kb/s
Movie name : Remo
Performer : Bakkiyaraj Kannan
Genre : Bollywood
Description : An aspiring actor falls in love with Kavya, a doctor. Upon knowing that she is already engaged, he
Recorded date : UTC 2016-10-07 07:00:00
Encoded date : UTC 2019-02-27 07:49:16
Tagged date : UTC 2019-02-27 08:03:56
Cover : Yes

Video
ID : 3
Format : AVC
Format/Info : Advanced Video Codec
Format profile : [email protected]
Format settings : CABAC / 5 Ref Frames
Format settings, CABAC : Yes
Format settings, Reference frames : 5 frames
Codec ID : avc1
Codec ID/Info : Advanced Video Coding
Duration : 2 h 25 min
Bit rate : 4 846 kb/s
Width : 1 920 pixels
Height : 816 pixels
Display aspect ratio : 2.35:1
Frame rate mode : Constant
Frame rate : 24.000 FPS
Color space : YUV
Chroma subsampling : 4:2:0
Bit depth : 8 bits
Scan type : Progressive
Bits/(Pixel*Frame) : 0.129
Stream size : 4.92 GiB (90%)
Language : English
Encoded date : UTC 2019-02-27 08:02:01
Tagged date : UTC 2019-02-27 08:03:49
Color range : Limited
Color primaries : BT.709
Transfer characteristics : BT.709
Matrix coefficients : BT.709
Codec configuration box : avcC

Audio #1
ID : 1
Format : AAC LC
Format/Info : Advanced Audio Codec Low Complexity
Codec ID : mp4a-40-2
Duration : 2 h 25 min
Duration_LastFrame : -1 ms
Bit rate mode : Variable
Bit rate : 128 kb/s
Maximum bit rate : 209 kb/s
Channel(s) : 2 channels
Channel layout : L R
Sampling rate : 48.0 kHz
Frame rate : 46.875 FPS (1024 SPF)
Compression mode : Lossy
Stream size : 133 MiB (2%)
Language : Tamil
Default : Yes
Alternate group : 1
Encoded date : UTC 2019-02-27 07:49:23
Tagged date : UTC 2019-02-27 07:57:52
Menus : 5

Audio #2
ID : 2
Format : AC-3
Format/Info : Audio Coding 3
Commercial name : Dolby Digital
Codec ID : ac-3
Duration : 2 h 25 min
Duration_LastFrame : -1 ms
Bit rate mode : Constant
Bit rate : 384 kb/s
Channel(s) : 6 channels
Channel layout : L R C LFE Ls Rs
Sampling rate : 48.0 kHz
Frame rate : 31.250 FPS (1536 SPF)
Compression mode : Lossy
Stream size : 399 MiB (7%)
Language : Tamil
Service kind : Complete Main
Default : No
Alternate group : 1
Encoded date : UTC 2019-02-27 07:57:52
Tagged date : UTC 2019-02-27 08:02:01

Text
ID : 4
Format : Timed Text
Muxing mode : sbtl
Codec ID : tx3g
Duration : 2 h 25 min
Bit rate mode : Variable
Bit rate : 100 b/s
Stream size : 106 KiB (0%)
Language : English
Default : Yes
Forced : No
Alternate group : 2
Encoded date : UTC 2019-02-27 08:03:50
Tagged date : UTC 2019-02-27 08:03:54

Menu
ID : 5
Codec ID : text
Duration : 2 h 25 min
Encoded date : UTC 2019-02-27 08:03:56
Tagged date : UTC 2019-02-27 08:03:56
Bit rate mode : CBR
Menu For : 1
00:00:00.000 : 1
00:14:33.083 : 2
00:44:00.541 : 3
01:21:41.166 : 4
01:43:35.373 : 5
01:57:29.039 : 6
02:23:09.914 : 7
Bit rate mode : Constant


Screenshot-1.jpgScreenshot-2.jpgScreenshot-3.jpgScreenshot-4.jpgScreenshot-7.jpgScreenshot-8.jpgScreenshot-9.jpgScreenshot-11.jpgScreenshot-15.jpgScreenshot-17.jpg
Gdrive Single Link+Download
https://bit.ly/2YaMhdW

0 0 vote
Article Rating
Subscribe
Notify of
guest
0 Comments
Inline Feedbacks
View all comments