Ready or Not (2019) BluRay 1080p 10bit HEVC [Org BD 5.1 Hindi + DD 5.1 English] H265 ESub- SaturnWeb

General

Format version                           : Version 4
File size                                : 4.35 GiB
Duration                                 : 1 h 35 min
Overall bit rate                         : 6 533 kb/s
Movie name                               : Ready or Not -SaturnWeb
Encoded date                             : UTC 2019-12-08 03:24:34
Writing application                      : mkvmerge v29.0.0 (‘Like It Or Not’) 32-bit
Writing library                          : libebml v1.3.6 + libmatroska v1.4.9

Video
ID                                       : 1
Format                                   : HEVC
Format/Info                              : High Efficiency Video Coding
Format profile                           : Main [email protected]@Main
Codec ID                                 : V_MPEGH/ISO/HEVC
Duration                                 : 1 h 35 min
Bit rate                                 : 5 655 kb/s
Width                                    : 1 920 pixels
Height                                   : 804 pixels
Display aspect ratio                     : 2.40:1
Frame rate mode                          : Constant
Frame rate                               : 23.976 (24000/1001) FPS
Color space                              : YUV
Chroma subsampling                       : 4:2:0
Bit depth                                : 10 bits
Bits/(Pixel*Frame)                       : 0.153
Stream size                              : 3.77 GiB (87%)
Writing library                          : x265 3.2+5-354901970679:[Windows][GCC 9.2.0][64 bit] 10bit

Audio #1
ID                                       : 2
Format                                   : AAC LC
Format/Info                              : Advanced Audio Codec Low Complexity
Codec ID                                 : A_AAC-2
Duration                                 : 1 h 35 min
Bit rate                                 : 421 kb/s
Channel(s)                               : 6 channels
Channel layout                           : C L R Ls Rs LFE
Sampling rate                            : 48.0 kHz
Frame rate                               : 46.875 FPS (1024 SPF)
Compression mode                         : Lossy
Delay relative to video                  : 20 ms
Stream size                              : 287 MiB (6%)
Language                                 : English
Default                                  : Yes
Forced                                   : No

Audio #2
ID                                       : 4
Format                                   : AC-3
Format/Info                              : Audio Coding 3
Commercial name                          : Dolby Digital
Codec ID                                 : A_AC3
Duration                                 : 1 h 35 min
Bit rate mode                            : Constant
Bit rate                                 : 448 kb/s
Channel(s)                               : 6 channels
Channel layout                           : L R C LFE Ls Rs
Sampling rate                            : 48.0 kHz
Frame rate                               : 31.250 FPS (1536 SPF)
Bit depth                                : 16 bits
Compression mode                         : Lossy
Stream size                              : 306 MiB (7%)
Title                                    : Hindi DD 5.1-SaturnWeb
Language                                 : Hindi
Service kind                             : Complete Main
Default                                  : No
Forced                                   : Yes

Text
ID                                       : 3
Format                                   : VobSub
Muxing mode                              : zlib
Codec ID                                 : S_VOBSUB
Codec ID/Info                            : Picture based subtitle format used on DVDs
Duration                                 : 1 h 35 min
Bit rate                                 : 9 463 b/s
Count of elements                        : 1363
Stream size                              : 6.45 MiB (0%)
Title                                    : English DD 5.1
Language                                 : English
Default                                  : No
Forced                                   : No

Menu
00:00:00.000                             : en:Chapter 01
00:03:11.983                             : en:Chapter 02
00:06:49.534                             : en:Chapter 03
00:09:27.441                             : en:Chapter 04
00:12:26.787                             : en:Chapter 05
00:16:24.149                             : en:Chapter 06
00:21:58.275                             : en:Chapter 07
00:25:21.311                             : en:Chapter 08
00:28:00.261                             : en:Chapter 09
00:31:21.921                             : en:Chapter 10
00:34:46.459                             : en:Chapter 11
00:36:08.624                             : en:Chapter 12
00:38:23.676                             : en:Chapter 13
00:41:55.930                             : en:Chapter 14
00:45:40.362                             : en:Chapter 15
00:48:02.713                             : en:Chapter 16
00:51:50.440                             : en:Chapter 17
00:54:05.367                             : en:Chapter 18
00:57:04.963                             : en:Chapter 19
00:59:52.714                             : en:Chapter 20
01:01:37.902                             : en:Chapter 21
01:04:01.671                             : en:Chapter 22
01:07:31.505                             : en:Chapter 23
01:09:25.494                             : en:Chapter 24
01:11:48.053                             : en:Chapter 25
01:15:59.346                             : en:Chapter 26
01:18:34.584                             : en:Chapter 27
01:21:39.644                             : en:Chapter 28
01:24:07.292                             : en:Chapter 29
01:27:48.012                             : en:Chapter 30
01:29:22.315                             : en:Chapter 31
01:30:48.860                             : en:Chapter 32

Torrent Download 

G- Drive Download 

https://sharer.pw/file/01_9f4GRrp7

https://drive.klop.me/file/4f49eb7121

 File Locker Download 

https://thefileslocker.com/wmovzhl8weqr.html

0 0 vote
Article Rating
Subscribe
Notify of
guest
0 Comments
Inline Feedbacks
View all comments