Ram-Leela – (2013) – BD25 Bluray -AVC-DTS 5.1 – DD 5.1- Hindi Audio – BwT | G- Drive | 22 GB |

General
ID : 1 (0x1)

Format : BDAV
Format/Info : Blu-ray Video
File size : 22.0 GiB
Duration : 2 h 38 min
Overall bit rate mode : Variable
Overall bit rate : 19.9 Mb/s
Maximum Overall bit rate : 35.5 Mb/s

Video
ID : 4113 (0x1011)
Menu ID : 1 (0x1)
Format : AVC
Format/Info : Advanced Video Codec
Format profile : [email protected]
Format settings : CABAC / 2 Ref Frames
Format settings, CABAC : Yes
Format settings, ReFrames : 2 frames
Codec ID : 27
Duration : 2 h 38 min
Bit rate mode : Variable
Bit rate : 17.1 Mb/s
Maximum bit rate : 35.0 Mb/s
Width : 1 920 pixels
Height : 1 080 pixels
Display aspect ratio : 16:9
Frame rate : 24.000 FPS
Color space : YUV
Chroma subsampling : 4:2:0
Bit depth : 8 bits
Scan type : Progressive
Bits/(Pixel*Frame) : 0.344
Stream size : 18.9 GiB (86%)

Audio #1
ID : 4352 (0x1100)
Menu ID : 1 (0x1)
Format : DTS
Format/Info : Digital Theater Systems
Codec ID : 130
Duration : 2 h 38 min
Bit rate mode : Constant
Bit rate : 1 509 kb/s
Channel(s) : 6 channels
Channel layout : C L R Ls Rs LFE
Sampling rate : 48.0 kHz
Frame rate : 93.750 FPS (512 SPF)
Bit depth : 24 bits
Compression mode : Lossy
Stream size : 1.67 GiB (8%)

Audio #2
ID : 4353 (0x1101)
Menu ID : 1 (0x1)
Format : AC-3
Format/Info : Audio Coding 3
Commercial name : Dolby Digital
Codec ID : 129
Duration : 2 h 38 min
Bit rate mode : Constant
Bit rate : 448 kb/s
Channel(s) : 6 channels
Channel layout : L R C LFE Ls Rs
Sampling rate : 48.0 kHz
Frame rate : 31.250 FPS (1536 SPF)
Bit depth : 16 bits
Compression mode : Lossy
Stream size : 507 MiB (2%)
Service kind : Complete Main

Text #1
ID : 4608 (0x1200)
Menu ID : 1 (0x1)
Format : PGS
Codec ID : 144

Text #2
ID : 4609 (0x1201)
Menu ID : 1 (0x1)
Format : PGS
Codec ID : 144

G- Drive Full Movie 

https://sharer.pw/file/tTPp-QXwlc9

https://drive.klop.me/file/880f496c1a

G- Drive Parts 

Ram-Leela – (2013) – BD25 Bluray -AVC-DTS 5.1 – DD 5.1- Hindi Audio.part1.rar

Ram-Leela – (2013) – BD25 Bluray -AVC-DTS 5.1 – DD 5.1- Hindi Audio.part2.rar

Ram-Leela – (2013) – BD25 Bluray -AVC-DTS 5.1 – DD 5.1- Hindi Audio.part3.rar

Ram-Leela – (2013) – BD25 Bluray -AVC-DTS 5.1 – DD 5.1- Hindi Audio.part4.rar

Ram-Leela – (2013) – BD25 Bluray -AVC-DTS 5.1 – DD 5.1- Hindi Audio.part5.rar

The Fie Locker Parts

Ram-Leela – (2013) – BD25 Bluray -AVC-DTS 5.1 – DD 5.1- Hindi Audio.part1.rar – 4.4 GB

Ram-Leela – (2013) – BD25 Bluray -AVC-DTS 5.1 – DD 5.1- Hindi Audio.part2.rar – 4.4 GB

Ram-Leela – (2013) – BD25 Bluray -AVC-DTS 5.1 – DD 5.1- Hindi Audio.part3.rar – 4.4 GB

Ram-Leela – (2013) – BD25 Bluray -AVC-DTS 5.1 – DD 5.1- Hindi Audio.part4.rar – 4.4 GB

Ram-Leela – (2013) – BD25 Bluray -AVC-DTS 5.1 – DD 5.1- Hindi Audio.part5.rar – 4.0 GB

0 0 vote
Article Rating
Subscribe
Notify of
guest
0 Comments
Inline Feedbacks
View all comments