Raja The Great (2017) (MUSIC VIDEOS ALBUM) Telugu 1080p WebHD AVC DDP 5.1 By-DusIcTv | G- Drive |

Media info
General
Format : Matroska
Format version : Version 4
File size : 2.02 GB
Overall bit rate : 11.6 Mb/s
Encoded date : UTC 2019-10-13 09:10:11
Writing application : mkvmerge v36.0.0 (‘Is That Jazz?’) 64-bit
Writing library : libebml v1.3.9 + libmatroska v1.5.2

Video
ID : 1
Format : AVC
Format/Info : Advanced Video Codec
Format profile : [email protected]
Format settings : CABAC / 4 Ref Frames
Format settings, CABAC : Yes
Format settings, Reference frames : 4 frames
Codec ID : V_MPEG4/ISO/AVC
Bit rate : 11.0 Mb/s
Width : 1 920 pixels
Height : 816 pixels
Display aspect ratio : 2.35:1
Frame rate mode : Constant
Frame rate : 24.000 FPS
Color space : YUV
Chroma subsampling : 4:2:0
Bit depth : 8 bits
Scan type : Progressive
Bits/(Pixel*Frame) : 0.292
Stream size : 257 MiB (94%)
Default : Yes
Forced : No
Color range : Limited
Color primaries : BT.709
Transfer characteristics : BT.709
Matrix coefficients : BT.709

Audio
ID : 2
Format : E-AC-3
Format/Info : Enhanced AC-3
Commercial name : Dolby Digital Plus
Codec ID : A_EAC3
Bit rate mode : Constant
Bit rate : 640 kb/s
Channel(s) : 6 channels
Channel layout : L R C LFE Ls Rs
Sampling rate : 48.0 kHz
Frame rate : 31.250 FPS (1536 SPF)
Compression mode : Lossy
Delay relative to video : 16 ms
Stream size : 15.0 MiB (6%)
Title : Telugu
Language : Telugu
Service kind : Complete Main
Default : No
Forced : No

Text #1
ID : 3
Format : UTF-8
Codec ID : S_TEXT/UTF8
Codec ID/Info : UTF-8 Plain Text
Bit rate : 64 b/s
Count of elements : 50
Stream size : 1.38 KiB (0%)
Title : English [SDH]
Language : English
Default : No
Forced : No

Text #2
ID : 4
Format : UTF-8
Codec ID : S_TEXT/UTF8
Codec ID/Info : UTF-8 Plain Text
Bit rate : 159 b/s
Count of elements : 51
Stream size : 3.39 KiB (0%)
Title : Hindi [Full]
Language : Hindi
Default : No
Forced : No

Text #3
ID : 5
Format : UTF-8
Codec ID : S_TEXT/UTF8
Codec ID/Info : UTF-8 Plain Text
Bit rate : 201 b/s
Count of elements : 51
Stream size : 4.29 KiB (0%)
Title : Tamil [Full]
Language : Tamil
Default : No
Forced : No

G- Drive Download 

01-Chinnari 1 [By-DusIcTv].mkv – 157.6 MB

02-Chinnari 2 [By-DusIcTv].mkv – 106.7 MB

03-Raja The Great [By-DusIcTv].mkv – 271.7 MB

04-Music Theme [By-DusIcTv].mkv – 83.3 MB

05-Allabe Allabe [By-DusIcTv].mkv – 252.8 MB

06-I Am Blind (Fight) [By-DusIcTv].mkv – 294.9 MB

07-Gunna Gunna Mamidi [By-DusIcTv].mkv – 159.6 MB

08-Naake Ne Nachesthunna [By-DusIcTv].mkv – 282.5 MB

09-Yenniyalo Yenniyalo [By-DusIcTv].mkv – 381.3 MB

10-Raja The Great End Roll [By-DusIcTv].mkv – 80.0 MB

0 0 vote
Article Rating
Subscribe
Notify of
guest
0 Comments
Inline Feedbacks
View all comments