Pyaasa (1957) (MUSIC VIDEO ALBUM) Untouched – BD50 Plus DD 5.1 ESuBS By-DusIcTv

General
ID                                       : 1 (0x1)
Format                                   : BDAV
Format                                   : M2ts
Format/Info                              : Blu-ray Video
File size                                : 13.2 GB
Overall bit rate mode                    : Variable
Overall bit rate                         : 36.0 Mb/s
Maximum Overall bit rate                 : 35.5 Mb/s

Video
ID                                       : 4113 (0x1011)
Menu ID                                  : 1 (0x1)
Format                                   : AVC
Format/Info                              : Advanced Video Codec
Format profile                           : [email protected]
Format settings                          : CABAC / 4 Ref Frames
Format settings, CABAC                   : Yes
Format settings, Reference frames        : 4 frames
Codec ID                                 : 27
Bit rate mode                            : Variable
Bit rate                                 : 33.9 Mb/s
Maximum bit rate                         : 39.0 Mb/s
Width                                    : 1 920 pixels
Height                                   : 1 080 pixels
Display aspect ratio                     : 16:9
Frame rate                               : 24.000 FPS
Standard                                 : NTSC
Color space                              : YUV
Chroma subsampling                       : 4:2:0
Bit depth                                : 8 bits
Scan type                                : Progressive
Bits/(Pixel*Frame)                       : 0.682
Stream size                              : 1.14 GiB (94%)
Color range                              : Limited
Color primaries                          : BT.709
Transfer characteristics                 : BT.709
Matrix coefficients                      : BT.709

Audio
ID                                       : 4352 (0x1100)
Menu ID                                  : 1 (0x1)
Format                                   : AC-3
Format/Info                              : Audio Coding 3
Commercial name                          : Dolby Digital
Codec ID                                 : 129
Bit rate mode                            : Constant
Bit rate                                 : 640 kb/s
Channel(s)                               : 6 channels
Channel layout                           : L R C LFE Ls Rs
Sampling rate                            : 48.0 kHz
Frame rate                               : 31.250 FPS (1536 SPF)
Bit depth                                : 16 bits
Compression mode                         : Lossy
Delay relative to video                  : 6 ms
Stream size                              : 22.1 MiB (2%)
Service kind                             : Complete Main

Text
ID                                       : 4608 (0x1200)
Menu ID                                  : 1 (0x1)
Format                                   : PGS
Codec ID                                 : 144
Delay relative to video                  : 5 s 458 ms

01-Ye Hanste Huye Phool [By-DusIcTv].m2ts – 356.7 MB

02-Jaane Kya Tune Kahi [By-DusIcTv].m2ts – 1.2 GB

03-Ho Lakh Musibat Raste Mein [By-DusIcTv].m2ts – 509.8 MB

04-Sar Jo Tera Chakraye 1 [By-DusIcTv].m2ts – 1.2 GB

05-Tang Aa Chuke Hai [By-DusIcTv].m2ts – 725.9 MB

06-Ham Aapki Aankhon Me [By-DusIcTv].m2ts – 1.8 GB

07-Jaane Woh Kaise Log [By-DusIcTv].m2ts – 1.4 GB

08-Aaj Sajan Mohe Ang Lagalo [By-DusIcTv].m2ts – 1.3 GB

09-Gham Is Qadr Barhy K Main Ghabraa Ke Pee Gayaa [By-DusIcTv].m2ts – 822.4 MB

10-Yeh Kooche Yeh Neelam Ghar Dilkashi Ke [By-DusIcTv].m2ts – 1.7 GB

11-Sar Jo Tera Chakraye [By-DusIcTv].m2ts – 209.8 MB

12-Ye Duniya Agar Mil Bhi Jaye 1 [By-DusIcTv].m2ts – 1.3 GB

13-Ye Duniya Agar Mil Bhi Jaye 2 [By-DusIcTv].m2ts – 601.6 MB

0 0 vote
Article Rating
Subscribe
Notify of
guest
1 Comment
Oldest
Newest Most Voted
Inline Feedbacks
View all comments
Tariq 806
Tariq 806
1 year ago

Dear Sir, Who listens to such old songs? Upload songs after the 2000s