Prometheus (2012) 1080p 10bit Bluray x265 HEVC [Org BD 5.1 Hindi + DD 5.1 English] MSubs ~TombDoc [3.89 GB]

Prometheus (2012)

Director: Ridley Scott
Stars: Noomi Rapace, Michael Fassbender, Charlize Theron, Idris Elba

Runtime: 124 min (taken from IMDb)
Genre: Adventure, Mystery, Sci-Fi

Country: USA, UK
Released: 08 Jun 2012

Rating: 7.0 (may differ)
Votes: 549,256 (may differ)

Release Date: 08 Jun 2012 (taken from IMDb)
Viewer Rating (TV/MPAA): R (taken from IMDb)

Summary: Following clues to the origin of mankind, a team finds a structure on a distant moon, but they soon realize they are not alone.

Links: IMDb tt1446714

SCREENSHOTS

.










DOWNLOAD – Google Drive

 

Prometheus (2012) 1080p 10bit Bluray x265 HEVC [Org BD 5.1 Hindi + DD 5.1 English] MSubs ~TombDoc [3.89 GB]

 

MEDIA INFO

 

General
Unique ID                                : 15059460628912536629159220826016708753 (0xB5458BBE6DE135005E8DA537F45F891)
Complete name                            : Prometheus (2012) 1080p 10bit Bluray x265 HEVC [Org BD 5.1 Hindi + DD 5.1 English] MSubs ~ TombDoc.mkv
Format                                   : Matroska
Format version                           : Version 4
File size                                : 3.89 GiB
Duration                                 : 2 h 3 min
Overall bit rate                         : 4 500 kb/s
Movie name                               : Prometheus (2012) 1080p 10bit Bluray x265 HEVC [Org BD 5.1 Hindi + DD 5.1 English] MSubs ~ TombDoc
Encoded date                             : UTC 2019-05-12 06:27:03
Writing application                      : mkvmerge v33.1.0 ('Primrose') 64-bit
Writing library                          : libebml v1.3.7 + libmatroska v1.5.0
Writing frontend                         : TombDoc

Video
ID                                       : 1
Format                                   : HEVC
Format/Info                              : High Efficiency Video Coding
Format profile                           : Main [email protected]@Main
Codec ID                                 : V_MPEGH/ISO/HEVC
Duration                                 : 2 h 3 min
Bit rate                                 : 3 648 kb/s
Width                                    : 1 920 pixels
Height                                   : 800 pixels
Display aspect ratio                     : 2.40:1
Frame rate mode                          : Constant
Frame rate                               : 23.976 (24000/1001) FPS
Color space                              : YUV
Chroma subsampling                       : 4:2:0
Bit depth                                : 10 bits
Bits/(Pixel*Frame)                       : 0.099
Stream size                              : 3.15 GiB (81%)

Default                                  : Yes
Forced                                   : No

Audio #1
ID                                       : 2
Format                                   : AC-3
Format/Info                              : Audio Coding 3
Commercial name                          : Dolby Digital
Codec ID                                 : A_AC3
Duration                                 : 2 h 3 min
Bit rate mode                            : Constant
Bit rate                                 : 448 kb/s
Channel(s)                               : 6 channels
Channel layout                           : L R C LFE Ls Rs
Sampling rate                            : 48.0 kHz
Frame rate                               : 31.250 FPS (1536 SPF)
Bit depth                                : 16 bits
Compression mode                         : Lossy
Stream size                              : 397 MiB (10%)
Title                                    : Org BD 5.1 448Kbps ~ TombDoc
Language                                 : Hindi
Service kind                             : Complete Main
Default                                  : Yes
Forced                                   : Yes

Audio #2
ID                                       : 3
Format                                   : AC-3
Format/Info                              : Audio Coding 3
Commercial name                          : Dolby Digital
Codec ID                                 : A_AC3
Duration                                 : 2 h 3 min
Bit rate mode                            : Constant
Bit rate                                 : 384 kb/s
Channel(s)                               : 6 channels
Channel layout                           : L R C LFE Ls Rs
Sampling rate                            : 48.0 kHz
Frame rate                               : 31.250 FPS (1536 SPF)
Bit depth                                : 16 bits
Compression mode                         : Lossy
Stream size                              : 340 MiB (9%)
Title                                    : DD 5.1 English
Language                                 : English
Service kind                             : Complete Main
Default                                  : No
Forced                                   : No

Text #1
ID                                       : 4
Format                                   : PGS
Muxing mode                              : zlib
Codec ID                                 : S_HDMV/PGS
Codec ID/Info                            : Picture based subtitle format used on BDs/HD-DVDs
Duration                                 : 1 h 58 min
Bit rate                                 : 190 b/s
Count of elements                        : 18
Stream size                              : 165 KiB (0%)
Title                                    : Hindi BD-PGS {Forced}
Language                                 : Hindi
Default                                  : Yes
Forced                                   : Yes

Text #2
ID                                       : 5
Format                                   : PGS
Muxing mode                              : zlib
Codec ID                                 : S_HDMV/PGS
Codec ID/Info                            : Picture based subtitle format used on BDs/HD-DVDs
Duration                                 : 1 h 59 min
Bit rate                                 : 38.4 kb/s
Count of elements                        : 3206
Stream size                              : 32.9 MiB (1%)
Title                                    : Eng BD-PGS
Language                                 : English
Default                                  : No
Forced                                   : No

Text #3
ID                                       : 6
Format                                   : PGS
Muxing mode                              : zlib
Codec ID                                 : S_HDMV/PGS
Codec ID/Info                            : Picture based subtitle format used on BDs/HD-DVDs
Duration                                 : 1 h 55 min
Bit rate                                 : 187 b/s
Count of elements                        : 16
Stream size                              : 159 KiB (0%)
Title                                    : Tamil BD-PGS {Forced}
Language                                 : Tamil
Default                                  : No
Forced                                   : No
0 0 vote
Article Rating
Subscribe
Notify of
guest
3 Comments
Oldest
Newest Most Voted
Inline Feedbacks
View all comments
Pankaj Singh
Pankaj Singh
1 year ago

Bro please upload the shape of water 2017 in 10bit 1080p hindi

Skkk
Skkk
11 months ago

Prometheus link not working