Prem Ratan Dhan Payo (2015) (MUSIC VIDEOS ALBUM) 1080p Blu-Ray Rip DTS-HDMA 5.1 By-DusIcTv

Prem Ratan Dhan Payo (2015) (MUSIC VIDEOS ALBUM) 1080p Blu-Ray Rip DTS-HDMA 5.1 By-DusIcTv

xxxxxxxxxxxxxxxxxxxxxxxxxxxxxxxxxxxxxxxxxxxxxxxxxxxxxxxxxxxxxxxxxxxxxxxxxxxxxxxxxxxxxxxxxxxxxxxxxxx
Prem Ratan Dhan Payo (2015) (MUSIC VIDEOS ALBUM) 1080p Blu-Ray Rip DTS-HDMA 5.1 By-DusIcTv
xxxxxxxxxxxxxxxxxxxxxxxxxxxxxxxxxxxxxxxxxxxxxxxxxxxxxxxxxxxxxxxxxxxxxxxxxxxxxxxxxxxxxxxxxxxxxxxxxxx

:details:

Format : Matroska
Format version : Version 4
File size : 4.19 GB
Overall bit rate mode : Variable
Overall bit rate : 16.2 Mb/s
Writing application : mkvmerge v36.0.0 (‘Is That Jazz?’) 32-bit
Writing library : libebml v1.3.9 + libmatroska v1.5.2

Video
ID : 1
Format : AVC
Format/Info : Advanced Video Codec
Format profile : [email protected]
Format settings : CABAC / 4 Ref Frames
Format settings, CABAC : Yes
Format settings, Reference frames : 4 frames
Codec ID : V_MPEG4/ISO/AVC
Bit rate : 10.4 Mb/s
Width : 1 920 pixels
Height : 816 pixels
Display aspect ratio : 2.35:1
Frame rate mode : Constant
Frame rate : 24.000 FPS
Color space : YUV
Chroma subsampling : 4:2:0
Bit depth : 8 bits
Scan type : Progressive
Bits/(Pixel*Frame) : 0.276
Stream size : 266 MiB (64%)
Default : Yes
Forced : No

Audio #1
ID : 2
Format : DTS XLL
Format/Info : Digital Theater Systems
Commercial name : DTS-HD Master Audio
Codec ID : A_DTS
Bit rate mode : Variable
Bit rate : 4 528 kb/s
Channel(s) : 6 channels
Channel layout : C L R Ls Rs LFE
Sampling rate : 48.0 kHz
Frame rate : 93.750 FPS (512 SPF)
Bit depth : 24 bits
Compression mode : Lossless
Delay relative to video : 3 ms
Stream size : 116 MiB (28%)
Language : Hindi
Default : Yes
Forced : No

Audio #2
ID : 3
Format : AC-3
Format/Info : Audio Coding 3
Commercial name : Dolby Digital
Codec ID : A_AC3
Bit rate mode : Constant
Bit rate : 640 kb/s
Channel(s) : 6 channels
Channel layout : L R C LFE Ls Rs
Sampling rate : 48.0 kHz
Frame rate : 31.250 FPS (1536 SPF)
Compression mode : Lossy
Delay relative to video : 24 ms
Stream size : 16.4 MiB (4%)
Title : Tamil
Service kind : Complete Main
Default : No
Forced : No

Audio #3
ID : 4
Format : AC-3
Format/Info : Audio Coding 3
Commercial name : Dolby Digital
Codec ID : A_AC3
Bit rate mode : Constant
Bit rate : 640 kb/s
Channel(s) : 6 channels
Channel layout : L R C LFE Ls Rs
Sampling rate : 48.0 kHz
Frame rate : 31.250 FPS (1536 SPF)
Compression mode : Lossy
Delay relative to video : 24 ms
Stream size : 16.4 MiB (4%)
Title : Telgu
Service kind : Complete Main
Default : No
Forced : No

Text
ID : 5
Format : PGS
Muxing mode : zlib
Codec ID : S_HDMV/PGS
Codec ID/Info : Picture based subtitle format used on BDs/HD-DVDs
Bit rate : 23.9 kb/s
Count of elements : 53
Stream size : 607 KiB (0%)
Language : English
Default : Yes
Forced : No

:screenshots:











:download2:
01-Ram Ratan Dhan Payo [By-DusIcTv].mkv   148.97 MB

https://thefileslocker.com/ia30fvyd51lj.html

02-Prem Leela [By-DusIcTv].mkv   416.09 MB

https://thefileslocker.com/t75efde5v5ys.html

03-Aaj Unse Milna Hai (1st) [By-DusIcTv].mkv   331.90 MB

https://thefileslocker.com/fqh19cp9ta17.html

04-Halo Re… [By-DusIcTv].mkv   203.00 MB

https://thefileslocker.com/rvox9xwnikyu.html

05-Aaj Unse Milna Hai (2nd) [By-DusIcTv].mkv   159.67 MB

https://thefileslocker.com/hw8h7ngwa5lp.html

06-Jab Tum Chaho (1st) [By-DusIcTv].mkv   163.74 MB

https://thefileslocker.com/sn86m0b4z773.html

07-Jab Tum Chaho (2nd) [By-DusIcTv].mkv   260.25 MB

https://thefileslocker.com/fvfryxk593he.html

08-Tod Tadaiyya [By-DusIcTv].mkv   812.45 MB

https://thefileslocker.com/sldb6z9giie2.html

09-Bachpan Kahan [By-DusIcTv].mkv   238.14 MB

https://thefileslocker.com/vjjkrun8nqm4.html

10-Prem Ratan Dhan Payo [By-DusIcTv].mkv   583.28 MB

https://thefileslocker.com/ayh953ifjqfc.html

11-Jalte Diye [By-DusIcTv].mkv   555.92 MB

https://thefileslocker.com/inargkh7t5u5.html

12-Murli Ki Taanon Si [By-DusIcTv].mkv   113.71 MB

https://thefileslocker.com/6j7jkt3f2k7u.html

13-Prem Ratan Dhan Payo End Roll [By-DusIcTv].mkv   309.40 MB

https://thefileslocker.com/x6951ma8dikr.html

https://thefileslocker.com/fb3as62lmj2x.html
https://uptobox.com/gvtv526anqqb

0 0 vote
Article Rating
Subscribe
Notify of
guest
0 Comments
Inline Feedbacks
View all comments