Prem Ratan Dhan Payo (2015) 1080p BluRay Rip – x264 DTS HDMA (Tri Audio) 5.1 ESub By-DusIcTv

Prem Ratan Dhan Payo (2015) 1080p BluRay Rip – x264 DTS HDMA (Tri Audio) 5.1 ESub By-DusIcTv

xxxxxxxxxxxxxxxxxxxxxxxxxxxxxxxxxxxxxxxxxxxxxxxxxxxxxxxxxxxxxxxxxxxxxxxxxxxxxxxxxxxxxxxxxxxxxxxxxxx
Prem Ratan Dhan Payo (2015) 1080p BluRay Rip – x264 DTS HDMA (Tri Audio) 5.1 ESub By-DusIcTv
xxxxxxxxxxxxxxxxxxxxxxxxxxxxxxxxxxxxxxxxxxxxxxxxxxxxxxxxxxxxxxxxxxxxxxxxxxxxxxxxxxxxxxxxxxxxxxxxxxx

:details:

General
Format : Matroska
Format version : Version 4
File size : 15.0 GiB
Duration : 2 h 43 min

Overall bit rate mode : Variable
Overall bit rate : 13.1 Mb/s
Writing application : mkvmerge v36.0.0 (‘Is That Jazz?’) 64-bit
Writing library : libebml v1.3.9 + libmatroska v1.5.2

Video
ID : 1
Format : AVC
Format/Info : Advanced Video Codec
Format profile : [email protected]
Format settings : CABAC / 4 Ref Frames
Format settings, CABAC : Yes
Format settings, Reference frames : 4 frames
Codec ID : V_MPEG4/ISO/AVC
Duration : 2 h 43 min
Bit rate : 7 692 kb/s
Width : 1 920 pixels
Height : 816 pixels
Display aspect ratio : 2.35:1
Frame rate mode : Constant
Frame rate : 24.000 FPS
Color space : YUV
Chroma subsampling : 4:2:0
Bit depth : 8 bits
Scan type : Progressive
Bits/(Pixel*Frame) : 0.205
Stream size : 8.80 GiB (59%)
Default : Yes
Forced : No

Audio #1
ID : 2
Format : DTS XLL
Format/Info : Digital Theater Systems
Commercial name : DTS-HD Master Audio
Codec ID : A_DTS
Duration : 2 h 43 min
Bit rate mode : Variable
Bit rate : 4 128 kb/s
Channel(s) : 6 channels
Channel layout : C L R Ls Rs LFE
Sampling rate : 48.0 kHz
Frame rate : 93.750 FPS (512 SPF)
Bit depth : 24 bits
Compression mode : Lossless
Stream size : 4.72 GiB (31%)
Language : Hindi
Default : Yes
Forced : No

Audio #2
ID : 3
Format : AC-3
Format/Info : Audio Coding 3
Commercial name : Dolby Digital
Codec ID : A_AC3
Duration : 2 h 43 min
Bit rate mode : Constant
Bit rate : 640 kb/s
Channel(s) : 6 channels
Channel layout : L R C LFE Ls Rs
Sampling rate : 48.0 kHz
Frame rate : 31.250 FPS (1536 SPF)
Bit depth : 16 bits
Compression mode : Lossy
Stream size : 750 MiB (5%)
Title : Tamil
Service kind : Complete Main
Default : No
Forced : No

Audio #3
ID : 4
Format : AC-3
Format/Info : Audio Coding 3
Commercial name : Dolby Digital
Codec ID : A_AC3
Duration : 2 h 43 min
Bit rate mode : Constant
Bit rate : 640 kb/s
Channel(s) : 6 channels
Channel layout : L R C LFE Ls Rs
Sampling rate : 48.0 kHz
Frame rate : 31.250 FPS (1536 SPF)
Bit depth : 16 bits
Compression mode : Lossy
Stream size : 750 MiB (5%)
Title : Telgu
Service kind : Complete Main
Default : No
Forced : No

Text
ID : 5
Format : PGS
Muxing mode : zlib
Codec ID : S_HDMV/PGS
Codec ID/Info : Picture based subtitle format used on BDs/HD-DVDs
Duration : 2 h 41 min
Bit rate : 24.2 kb/s
Count of elements : 2983
Stream size : 28.0 MiB (0%)
Language : English
Default : Yes
Forced : No

Menu
00:00:00.000 : en:00:00:00.000
00:04:24.333 : en:00:04:24.333
00:05:41.000 : en:00:05:41.000
00:09:12.208 : en:00:09:12.208
00:12:23.708 : en:00:12:23.708
00:16:50.583 : en:00:16:50.583
00:20:39.500 : en:00:20:39.500
00:24:51.583 : en:00:24:51.583
00:30:57.417 : en:00:30:57.417
00:33:19.875 : en:00:33:19.875
00:36:05.750 : en:00:36:05.750
00:41:39.292 : en:00:41:39.292
00:44:27.458 : en:00:44:27.458
00:58:21.000 : en:00:58:21.000
01:03:09.417 : en:01:03:09.417
01:07:09.250 : en:01:07:09.250
01:16:33.458 : en:01:16:33.458
01:26:20.042 : en:01:26:20.042
01:36:50.208 : en:01:36:50.208
01:44:25.000 : en:01:44:25.000
01:50:13.042 : en:01:50:13.042
01:58:41.208 : en:01:58:41.208
02:10:09.625 : en:02:10:09.625
02:25:39.208 : en:02:25:39.208
02:40:05.583 : en:02:40:05.583

Movie Ripped By @Dus Ka Sh3r @BWT.

:screenshots:








:download2:
https://thefileslocker.com/za7v79mmv4nt.html

0 0 vote
Article Rating
Subscribe
Notify of
guest
1 Comment
Oldest
Newest Most Voted
Inline Feedbacks
View all comments
Mehedi Hasan
Mehedi Hasan
1 year ago

Thanks for Upload…..
Please More Heart Touching Music Video Collection 1080p HDTV Untouched x264 – Hon3y. Upload Please