Ponmagal Vandhal (2020)[Tamil 1080p HDRip – HEVC – DD5.1 – x265]- 1Gb

0fa69bebd.jpg

Format : Matroska
Format version : Version 4
File size : 924 MiB
Duration : 2 h 3 min
Overall bit rate mode : Variable
Overall bit rate : 1 050 kb/s
Encoded date : UTC 2020-05-28 19:58:24
Writing application : mkvmerge v7.8.0 (‘River Man’) 64bit built on Mar 27 2015 16:31:37
Writing library : libebml v1.3.1 + libmatroska v1.4.2

Video
ID : 1
Format : HEVC
Format/Info : High Efficiency Video Coding
Format profile : [email protected]@Main
Codec ID : V_MPEGH/ISO/HEVC
Duration : 2 h 3 min
Bit rate : 788 kb/s
Width : 1 920 pixels
Height : 816 pixels
Display aspect ratio : 2.35:1
Frame rate mode : Variable
Frame rate : 24.000 FPS
Color space : YUV
Chroma subsampling : 4:2:0
Bit depth : 8 bits
Bits/(Pixel*Frame) : 0.021
Stream size : 693 MiB (75%)

Writing library : x265 3.1+2-b36c03e4e771:[Windows][GCC 9.1.1][64 bit] 8bit+10bit
Encoding settings : cpuid=1111039 / frame-threads=3 / numa-pools=12 / wpp / no-pmode / no-pme / no-psnr / no-ssim / log-level=2 / input-csp=1 / input-res=1920×816 / interlace=0 / total-frames=0 / level-idc=0 / high-tier=1 / uhd-bd=0 / ref=3 / no-allow-non-conformance / no-repeat-headers / annexb / no-aud / no-hrd / info / hash=0 / no-temporal-layers / open-gop / min-keyint=24 / keyint=250 / gop-lookahead=0 / bframes=4 / b-adapt=0 / b-pyramid / bframe-bias=0 / rc-lookahead=15 / lookahead-slices=5 / scenecut=40 / radl=0 / no-splice / no-intra-refresh / ctu=64 / min-cu-size=8 / no-rect / no-amp / max-tu-size=32 / tu-inter-depth=1 / tu-intra-depth=1 / limit-tu=0 / rdoq-level=0 / dynamic-rd=0.00 / no-ssim-rd / signhide / no-tskip / nr-intra=0 / nr-inter=0 / no-constrained-intra / strong-intra-smoothing / max-merge=2 / limit-refs=3 / no-limit-modes / me=1 / subme=2 / merange=57 / temporal-mvp / weightp / no-weightb / no-analyze-src-pics / deblock=0:0 / sao / no-sao-non-deblock / rd=2 / no-early-skip / rskip / fast-intra / no-tskip-fast / no-cu-lossless / no-b-intra / no-splitrd-skip / rdpenalty=0 / psy-rd=2.00 / psy-rdoq=0.00 / no-rd-refine / no-lossless / cbqpoffs=0 / crqpoffs=0 / rc=crf / crf=28.0 / qcomp=0.60 / qpstep=4 / stats-write=0 / stats-read=0 / ipratio=1.40 / pbratio=1.30 / aq-mode=2 / aq-strength=1.00 / cutree / zone-count=0 / no-strict-cbr / qg-size=32 / no-rc-grain / qpmax=69 / qpmin=0 / no-const-vbv / sar=1 / overscan=0 / videoformat=5 / range=0 / colorprim=2 / transfer=2 / colormatrix=2 / chromaloc=0 / display-window=0cll=0,0 / min-luma=0 / max-luma=255 / log2-max-poc-lsb=8 / vui-timing-info / vui-hrd-info / slices=1 / no-opt-qp-pps / no-opt-ref-list-length-pps / no-multi-pass-opt-rps / scenecut-bias=0.05 / no-opt-cu-delta-qp / no-aq-motion / no-hdr / no-hdr-opt / no-dhdr10-opt / no-idr-recovery-sei / analysis-reuse-level=5 / scale-factor=0 / refine-intra=0 / refine-inter=0 / refine-mv=0 / refine-ctu-distortion=0 / no-limit-sao / ctu-info=0 / no-lowpass-dct / refine-analysis-type=864474398 / copy-pic=1 / max-ausize-factor=1.0 / no-dynamic-refine / no-single-sei / no-hevc-aq / no-svt / no-field / qp-adaptation-range=1.00
Default : Yes
Forced : No
Color range : Limited

Audio
ID : 2
Format : Vorbis
Format settings, Floor : 1 / 16898
Codec ID : A_VORBIS
Duration : 2 h 3 min
Bit rate mode : Variable
Bit rate : 276 kb/s
Channel(s) : 6 channels
Sampling rate : 48.0 kHz
Frame rate : 85.352 FPS (562 SPF)
Compression mode : Lossy
Stream size : 228 MiB (25%)
Title : www.TamilRockers.ws
Writing application : Lavc58.53.100
Writing library : libVorbis (Now 100% fewer shells) (20180316 (Now 100% fewer shells))
Language : Tamil
Default : Yes
Forced : No

Text
ID : 3
Format : ASS
Codec ID : S_TEXT/ASS
Codec ID/Info : Advanced Sub Station Alpha
Duration : 2 h 1 min
Bit rate : 137 b/s
Count of elements : 1967
Compression mode : Lossless
Stream size : 123 KiB (0%)
Title : www.TamilRockers.ws
Language : English
Default : No
Forced : No

Menu
00:00:00.000 : :Studio Logo
00:01:03.000 : :Murder at LoveDale forest
00:07:35.000 : :Title Sequence
00:07:50.000 : :Tea Shop Owner tells about Pethuraj
00:14:52.000 : :Venba takes up a sensitive case and appears in court
00:26:04.000 : :Varadharajan requests Rajarathinam to help him with a case
00:40:20.000 : :Pethuraj helps Jothi and her daughter
00:49:06.000 : :Venba reveals a shocking truth
00:58:21.000 : :Rajarathinam gets upset with Varadharajan for hiding the facts
01:07:06.000 : :Venba interrogates Alexander
01:12:24.000 : :Pethuraj loses hope on the case
01:22:30.000 : :Venba explains the pain she went through in her childhood
01:31:47.000 : :Varadharajan appears in the court and Venba interrogates him
01:44:04.000 : :Jothi goes in search of her daughter
01:57:22.000 : :Venba tells the reason for fighting the case
02:00:22.000 : :End Credits


vlcsnap 2020 05 28 10h21m20s956vlcsnap 2020 05 28 10h22m01s965vlcsnap 2020 05 28 10h20m54s078vlcsnap 2020 05 28 10h22m09s963vlcsnap 2020 05 28 10h23m17s746vlcsnap 2020 05 28 10h23m38s246
Gdrive Single Link+Download
https://bit.ly/2XJihpk

0 0 vote
Article Rating
Subscribe
Notify of
guest
0 Comments
Inline Feedbacks
View all comments