Phir Bhi Dil Hai Hindustani (2000) 1080p NF WEBHD DD 5.1 MSub – DTOne | G- Drive | 8.34 GB |

General
Complete name                            : Phir Bhi Dil Hai Hindustani (2000) 1080p NF WEBHD DD 5.1 MSub – DTOne.mkv
Format                                   : Matroska
Format version                           : Version 4 / Version 2
File size                                : 8.34 GiB
Duration                                 : 2 h 38 min
Overall bit rate mode                    : Variable
Overall bit rate                         : 7 521 kb/s
Encoded date                             : UTC 2018-10-17 05:46:04 / UTC 2018-02-08 20:46:43
Writing application                      : mkvmerge v11.0.0 (‘Alive’) 64bit
Writing library                          : libebml v1.3.4 + libmatroska v1.4.5 / Lavf58.0.0

Video
ID                                       : 1
Format                                   : AVC
Format/Info                              : Advanced Video Codec
Format profile                           : [email protected]
Format settings                          : CABAC / 3 Ref Frames
Format settings, CABAC                   : Yes
Format settings, RefFrames               : 3 frames
Codec ID                                 : V_MPEG4/ISO/AVC
Duration                                 : 2 h 38 min
Bit rate mode                            : Variable
Bit rate                                 : 7 150 kb/s
Maximum bit rate                         : 10.7 Mb/s
Width                                    : 1 920 pixels
Height                                   : 1 080 pixels
Display aspect ratio                     : 16:9
Frame rate mode                          : Constant
Frame rate                               : 25.000 FPS
Color space                              : YUV
Chroma subsampling                       : 4:2:0
Bit depth                                : 8 bits
Scan type                                : Progressive
Bits/(Pixel*Frame)                       : 0.138
Stream size                              : 7.75 GiB (93%)
Writing library                          : x264 core 148 r2715 7e75228

Audio
ID                                       : 2
Format                                   : AC-3
Format/Info                              : Audio Coding 3
Codec ID                                 : A_AC3
Duration                                 : 2 h 38 min
Bit rate mode                            : Constant
Bit rate                                 : 384 kb/s
Channel(s)                               : 6 channels
Channel positions                        : Front: L C R, Side: L R, LFE
Sampling rate                            : 48.0 kHz
Frame rate                               : 31.250 FPS (1536 SPF)
Bit depth                                : 16 bits
Compression mode                         : Lossy
Stream size                              : 436 MiB (5%)
Service kind                             : Complete Main
Default                                  : Yes
Forced                                   : No

Text #1, #2, #3 & #4
ID                                       : 3
Format                                   : UTF-8
Codec ID                                 : S_TEXT/UTF8
Codec ID/Info                            : UTF-8 Plain Text
Title                                    : English, Spanish, French, German
Language                                 : English, Spanish, French, German
Default                                  : Yes, No, No, No
Forced                                   : Yes, No, No, No

https://drive.klop.me/file/c3b60538b3

https://sharer.pw/file/eOmnbrnPu1q

https://thefileslocker.com/gv1qslzrtvc5.html

0 0 vote
Article Rating
Subscribe
Notify of
guest
8 Comments
Oldest
Newest Most Voted
Inline Feedbacks
View all comments
Nikk
Nikk
1 year ago

Bro
Ye DTone kon sa torrent site pe movie upload karta hai

Pankaj singh Bisht
Pankaj singh Bisht
Reply to  SaturnWeb
1 year ago

Bro can u invite me ?

Pankaj singh Bisht
Pankaj singh Bisht
1 year ago

Nf full form? Netflix?

Pankaj singh Bisht
Pankaj singh Bisht
1 year ago

Chhoti Si Baat.1975.1080p.AMZN.WeB.DL.AVC.DDP.2.0.DusIcTv please upload

Pankaj singh Bisht
Pankaj singh Bisht
Reply to  Pankaj singh Bisht
1 year ago

?