Phantom (2015) BluRay 1080p DTS-HD Atmos 7.1 REMUX- | 30.6 GB |


Media Info:

NOTE

All the files in Winrar format, download all the parts and put into 1 folder, then open JUST 1st part extract (drag and drop) in different folder or drive, all the parts merge into Movie.

Format : Matroska
Format version : Version 4
File size : 30.7 GiB
Duration : 2 h 17 min
Overall bit rate mode : Variable
Overall bit rate : 32.0 Mb/s
Movie name : Phantom (2015)
Encoded date : UTC 2018-05-09 08:04:57
Writing application : mkvmerge v23.0.0 (‘The Bride Said No’) 64-bit
Writing library : libebml v1.3.6 + libmatroska v1.4.9

Video
ID : 1
Format : AVC
Format/Info : Advanced Video Codec
Format profile : [email protected]
Format settings : CABAC / 4 Ref Frames
Format settings, CABAC : Yes
Format settings, Reference frames : 4 frames
Codec ID : V_MPEG4/ISO/AVC
Duration : 2 h 17 min
Bit rate mode : Constant
Bit rate : 28.0 Mb/s
Width : 1 920 pixels
Height : 1 080 pixels
Display aspect ratio : 16:9
Frame rate mode : Constant
Frame rate : 24.000 FPS
Color space : YUV
Chroma subsampling : 4:2:0
Bit depth : 8 bits
Scan type : Progressive
Bits/(Pixel*Frame) : 0.563
Stream size : 25.7 GiB (84%)
Default : Yes
Forced : No

Audio #1
ID : 2
Format : MLP FBA 16-ch
Format/Info : Meridian Lossless Packing FBA with 16-channel presentation
Commercial name : Dolby TrueHD with Dolby Atmos
Codec ID : A_TRUEHD
Duration : 2 h 17 min
Bit rate mode : Variable
Bit rate : 4 461 kb/s
Maximum bit rate : 7 797 kb/s
Channel(s) : 8 channels
Channel layout : L R C LFE Ls Rs Lb Rb
Sampling rate : 48.0 kHz
Frame rate : 1 200.000 FPS (40 SPF)
Compression mode : Lossless
Stream size : 4.27 GiB (14%)
Title : TrueHD Atmos 7.1
Language : Hindi
Default : Yes
Forced : No
Number of dynamic objects : 11
Bed channel count : 1 channel
Bed channel configuration : LFE

Audio #2
ID : 3
Format : AC-3
Format/Info : Audio Coding 3
Commercial name : Dolby Digital
Codec ID : A_AC3
Duration : 2 h 17 min
Bit rate mode : Constant
Bit rate : 640 kb/s
Channel(s) : 6 channels
Channel layout : L R C LFE Ls Rs
Sampling rate : 48.0 kHz
Frame rate : 31.250 FPS (1536 SPF)
Compression mode : Lossy
Stream size : 627 MiB (2%)
Title : AC-3 5.1-EX
Language : Hindi
Service kind : Complete Main
Default : No
Forced : No

Text
ID : 4
Format : PGS
Codec ID : S_HDMV/PGS
Codec ID/Info : Picture based subtitle format used on BDs/HD-DVDs
Duration : 2 h 8 min
Bit rate : 27.5 kb/s
Count of elements : 2833
Stream size : 25.3 MiB (0%)
Title : English
Language : English
Default : Yes
Forced : No

Menu
00:00:00.000 : en:1. Beginning (Credits) / The Perfect Candidate
00:15:59.000 : en:2. Nachda
00:19:04.000 : en:3. The Mission Begins
00:52:05.000 : en:4. Welcome to Syria
01:06:26.542 : en:5. Inside Pakistan
01:26:46.167 : en:6. Afghan Jalebi
01:34:21.875 : en:7. Saware
01:35:05.208 : en:8. The Finale / End (Credits)


Screenshots:

Phantom (2015) BluRay 1080p DTS-HD Atmos 7.1 REMUX – part1 ( 11 GB )

https://drive.klop.me/file/b60afe9909

Phantom (2015) BluRay 1080p DTS-HD Atmos 7.1 REMUX – part2 ( 11 GB )

https://drive.klop.me/file/0708a0ed0c

Phantom (2015) BluRay 1080p DTS-HD Atmos 7.1 REMUX – part3 ( 8.6 GB )

https://drive.klop.me/file/30da60dbe2

0 0 vote
Article Rating
Subscribe
Notify of
guest
0 Comments
Inline Feedbacks
View all comments