Petta (2019) (MUSIC VIDEOS ALBUM) 1080p Untouched WebHD AVC DD 5.1 By-DusIcTv

xxxxxxxxxxxxxxxxxxxxxxxxxxxxxxxxxxxxxxxxxxxxxxxxxxxxxxxxxxxxxxxxxxxxxxxxxxxxxxxxxxxxxxxxxxxxxxxxxxx
Petta (2019) (MUSIC VIDEOS ALBUM) 1080p Untouched WebHD AVC DD 5.1 By-DusIcTv
xxxxxxxxxxxxxxxxxxxxxxxxxxxxxxxxxxxxxxxxxxxxxxxxxxxxxxxxxxxxxxxxxxxxxxxxxxxxxxxxxxxxxxxxxxxxxxxxxxx

General
Format : Matroska
Format version : Version 4
File size : 977 MB
Overall bit rate : 6 379 kb/s
Encoded date : UTC 2019-11-12 09:42:11
Writing application : mkvmerge v40.0.0 (‘Old Town Road + Pony’) 64-bit
Writing library : libebml v1.3.9 + libmatroska v1.5.2

Video
ID : 1
Format : AVC
Format/Info : Advanced Video Codec
Format profile : [email protected]
Format settings : CABAC / 3 Ref Frames
Format settings, CABAC : Yes
Format settings, Reference frames : 3 frames
Codec ID : V_MPEG4/ISO/AVC
Bit rate : 5 994 kb/s
Width : 1 920 pixels
Height : 1 080 pixels
Display aspect ratio : 16:9
Frame rate mode : Constant
Frame rate : 24.000 FPS
Color space : YUV
Chroma subsampling : 4:2:0
Bit depth : 8 bits
Scan type : Progressive
Bits/(Pixel*Frame) : 0.120
Stream size : 159 MiB (94%)
Title : By-DusIcTv
Default : Yes
Forced : No

Audio
ID : 2
Format : AC-3
Format/Info : Audio Coding 3
Commercial name : Dolby Digital
Codec ID : A_AC3
Bit rate mode : Constant
Bit rate : 384 kb/s
Channel(s) : 6 channels
Channel layout : L R C LFE Ls Rs
Sampling rate : 48.0 kHz
Frame rate : 31.250 FPS (1536 SPF)
Compression mode : Lossy
Delay relative to video : 12 ms
Stream size : 10.2 MiB (6%)
Title : By-DusIcTv
Language : Tamil
Service kind : Complete Main
Default : Yes
Forced : No

G- Drive Download

01-Marana Mass [By-DusIcTv].mkv

02-Marana Mass Full [By-DusIcTv].mkv

03-Unnai Ondru [By-DusIcTv].mkv

04-IIamai Thirumbudhe [By-DusIcTv].mkv

05-Ullaallaa [By-DusIcTv].mkv

06-Aaha Kalyanam [By-DusIcTv].mkv

07-Marana Mass End Roll [By-DusIcTv].mkv

The File Locker Download 

01-Marana Mass [By-DusIcTv].mkv – 66.8 MB
02-Marana Mass Full [By-DusIcTv].mkv – 123.9 MB
03-Unnai Ondru [By-DusIcTv].mkv – 60.5 MB
04-IIamai Thirumbudhe [By-DusIcTv].mkv – 168.7 MB
05-Ullaallaa [By-DusIcTv].mkv – 243.9 MB
06-Aaha Kalyanam [By-DusIcTv].mkv – 178.3 MB
07-Marana Mass End Roll [By-DusIcTv].mkv – 135.8 MB

0 0 vote
Article Rating
Subscribe
Notify of
guest
0 Comments
Inline Feedbacks
View all comments