Peter Rabbit 2018 2160p Uhd bluray (Hin-Eng).x265 [EtHD] 13Gb

Peter Rabbit (Tavşan Peter) - Custom Dvd Cover - English [2018]-1jpg

Format : Matroska
Format version : Version 4
File size : 13.1 GiB
Duration : 1 h 34 min
Overall bit rate mode : Variable
Overall bit rate : 19.8 Mb/s
Encoded date : UTC 2020-05-07 11:44:08
Writing application : mkvmerge v46.0.0 (‘No Deeper Escape’) 64-bit
Writing library : libebml v1.3.10 + libmatroska v1.5.2
Video
ID : 1
Format : HEVC
Format/Info : High Efficiency Video Coding
Format profile : Main [email protected]@High
HDR format : SMPTE ST 2086, HDR10 compatible
Codec ID : V_MPEGH/ISO/HEVC
Duration : 1 h 34 min
Bit rate : 14.1 Mb/s
Width : 3 840 pixels
Height : 1 606 pixels
Display aspect ratio : 2.40:1
Frame rate mode : Constant
Frame rate : 23.976 (24000/1001) FPS
Color space : YUV
Chroma subsampling : 4:2:0 (Type 2)
Bit depth : 10 bits
Bits/(Pixel*Frame) : 0.095
Stream size : 9.30 GiB (71%)
Writing library : x265 2.8+22-8f1d8a875bee:[Windows][GCC 6.3.0][64 bit] 10bit
Encoding settings : cpuid=1049071 / frame-threads=12 / numa-pools=4 / wpp / no-pmode / no-pme / no-psnr / no-ssim / log-level=2 / input-csp=1 / input-res=3840×1606 / interlace=0 / total-frames=136248 / level-idc=51 / high-tier=1 / uhd-bd=0 / ref=4 / no-allow-non-conformance / repeat-headers / annexb / aud / hrd / info / hash=0 / no-temporal-layers / no-open-gop / min-keyint=1 / keyint=24 / gop-lookahead=0 / bframes=4 / b-adapt=2 / b-pyramid / bframe-bias=0 / rc-lookahead=25 / lookahead-slices=4 / scenecut=40 / radl=0 / no-intra-refresh / ctu=64 / min-cu-size=8 / rect / no-amp / max-tu-size=32 / tu-inter-depth=1 / tu-intra-depth=1 / limit-tu=0 / rdoq-level=2 / dynamic-rd=0.00 / no-ssim-rd / signhide / no-tskip / nr-intra=0 / nr-inter=0 / no-constrained-intra / no-strong-intra-smoothing / max-merge=3 / limit-refs=3 / limit-modes / me=3 / subme=3 / merange=57 / temporal-mvp / weightp / no-weightb / no-analyze-src-pics / deblock=-3:-3 / no-sao / no-sao-non-deblock / rd=4 / no-early-skip / rskip / no-fast-intra / no-tskip-fast / no-cu-lossless / no-b-intra / no-splitrd-skip / rdpenalty=0 / psy-rd=2.00 / psy-rdoq=1.00 / no-rd-refine / no-lossless / cbqpoffs=0 / crqpoffs=0 / rc=crf / crf=17.0 / qcomp=0.60 / qpstep=4 / stats-write=0 / stats-read=0 / vbv-maxrate=160000 / vbv-bufsize=160000 / vbv-init=0.9 / crf-max=0.0 / crf-min=0.0 / ipratio=1.40 / pbratio=1.30 / aq-mode=1 / aq-strength=1.00 / cutree / zone-count=0 / no-strict-cbr / qg-size=32 / no-rc-grain / qpmax=69 / qpmin=0 / no-const-vbv / sar=1 / overscan=0 / videoformat=5 / range=0 / colorprim=9 / transfer=16 / colormatrix=9 / chromaloc=1 / chromaloc-top=2 / chromaloc-bottom=2 / display-window=0 / master-display=G(13250,34500)B(7500,3000)R(34000,16000)WP(15635,16450)L(40000000,50) / max-cll=3991,240 / min-luma=0 / max-luma=1023 / log2-max-poc-lsb=8 / vui-timing-info / vui-hrd-info / slices=1 / no-opt-qp-pps / no-opt-ref-list-length-pps / no-multi-pass-opt-rps / scenecut-bias=0.05 / no-opt-cu-delta-qp / no-aq-motion / hdr / hdr-opt / no-dhdr10-opt / no-idr-recovery-sei / analysis-reuse-level=5 / scale-factor=0 / refine-intra=0 / refine-inter=0 / refine-mv=0 / no-limit-sao / ctu-info=0 / no-lowpass-dct / refine-mv-type=0 / copy-pic=1 / max-ausize-factor=1.0 / no-dynamic-refine / no-single-sei
Default : Yes
Forced : No
Color range : Limited
Color primaries : BT.2020
Transfer characteristics : PQ
Matrix coefficients : BT.2020 non-constant
Mastering display color primaries : Display P3
Mastering display luminance : min: 0.0050 cd/m2, max: 4000 cd/m2
Maximum Content Light Level : 3991 cd/m2
Maximum Frame-Average Light Level : 240 cd/m2
Audio #1
ID : 2
Format : MLP FBA 16-ch
Format/Info : Meridian Lossless Packing FBA with 16-channel presentation
Commercial name : Dolby TrueHD with Dolby Atmos
Codec ID : A_TRUEHD
Duration : 1 h 34 min
Bit rate mode : Variable
Bit rate : 4 603 kb/s
Maximum bit rate : 8 133 kb/s
Channel(s) : 8 channels
Channel layout : L R C LFE Ls Rs Lb Rb
Sampling rate : 48.0 kHz
Frame rate : 1 200.000 FPS (40 SPF)
Compression mode : Lossless
Stream size : 3.05 GiB (23%)
Title : English Dolby Atmos 4603 kbps
Language : English
Default : No
Forced : No
Number of dynamic objects : 11
Bed channel count : 1 channel
Bed channel configuration : LFE
Audio #2
ID : 3
Format : AC-3
Format/Info : Audio Coding 3
Commercial name : Dolby Digital
Codec ID : A_AC3
Duration : 1 h 34 min
Bit rate mode : Constant
Bit rate : 640 kb/s
Channel(s) : 6 channels
Channel layout : L R C LFE Ls Rs
Sampling rate : 48.0 kHz
Frame rate : 31.250 FPS (1536 SPF)
Compression mode : Lossy
Stream size : 434 MiB (3%)
Title : English AC3 640 kbps
Language : English
Service kind : Complete Main
Default : No
Forced : No
Audio #3
ID : 6
Format : AAC LC
Format/Info : Advanced Audio Codec Low Complexity
Codec ID : A_AAC-2
Duration : 1 h 34 min
Bit rate : 384 kb/s
Channel(s) : 2 channels
Channel layout : L R
Sampling rate : 48.0 kHz
Frame rate : 46.875 FPS (1024 SPF)
Compression mode : Lossy
Stream size : 260 MiB (2%)
Language : Hindi
Default : Yes
Forced : No
Text #1
ID : 4
Format : UTF-8
Codec ID : S_TEXT/UTF8
Codec ID/Info : UTF-8 Plain Text
Duration : 1 h 33 min
Bit rate : 66 b/s
Count of elements : 1550
Stream size : 45.4 KiB (0%)
Title : Polish
Language : Polish
Default : No
Forced : No
Text #2
ID : 5
Format : PGS
Muxing mode : zlib
Codec ID : S_HDMV/PGS
Codec ID/Info : Picture based subtitle format used on BDs/HD-DVDs
Duration : 1 h 26 min
Bit rate : 53.8 kb/s
Count of elements : 3082
Stream size : 33.1 MiB (0%)
Title : English
Language : English
Default : No
Forced : No
Menu #1
00:00:00.000 : :
00:04:04.786 : :
00:08:26.297 : :
00:15:11.702 : :
00:21:00.634 : :
00:25:43.583 : :
00:30:50.265 : :
00:38:00.861 : :
00:44:37.341 : :
00:50:07.671 : :
00:56:21.294 : :
01:01:07.580 : :
01:07:02.560 : :
01:10:30.809 : :
01:14:35.137 : :
01:21:51.990 : :
Menu #2
00:00:00.000 : en:Chapter 1
00:04:04.786 : en:Chapter 2
00:08:26.297 : en:Chapter 3
00:15:11.702 : en:Chapter 4
00:21:00.634 : en:Chapter 5
00:25:43.583 : en:Chapter 6
00:30:50.265 : en:Chapter 7
00:38:00.861 : en:Chapter 8
00:44:37.341 : en:Chapter 9
00:50:07.671 : en:Chapter 10
00:56:21.294 : en:Chapter 11
01:01:07.580 : en:Chapter 12
01:07:02.560 : en:Chapter 13
01:10:30.809 : en:Chapter 14
01:14:35.137 : en:Chapter 15
01:21:51.990 : en:Chapter 16

Peter Rabbit 4K UHD Blu-ray ReviewPeter Rabbit 4K UHD Blu-ray ReviewVirgin mediaPeter Rabbit HD Wallpaper | Background Image | 1920x1080 | ID ...Peter Rabbit - 1920x1080 Wallpaper - Ecopetit.cat
Gdrive Single Link+download
https://bit.ly/2SNekye
0 0 vote
Article Rating
Subscribe
Notify of
guest
0 Comments
Inline Feedbacks
View all comments