Peter.Rabbit.2018.1080p.BluRay(Hin+Eng).x264 1.6Gb

Peter Rabbit (2018) [Ver Online] [Descargar] [HD 1080p] [Español ...

Format : Matroska
Format version : Version 4
File size : 1.77 GiB
Duration : 1 h 34 min
Overall bit rate : 2 680 kb/s
Encoded date : UTC 2020-05-07 05:57:51
Writing application : mkvmerge v46.0.0 (‘No Deeper Escape’) 64-bit
Writing library : libebml v1.3.10 + libmatroska v1.5.2
Video
ID : 1
Format : AVC
Format/Info : Advanced Video Codec
Format profile : [email protected]
Format settings : CABAC / 4 Ref Frames
Format settings, CABAC : Yes
Format settings, Reference frames : 4 frames
Codec ID : V_MPEG4/ISO/AVC
Duration : 1 h 34 min
Bit rate : 2 150 kb/s
Width : 1 920 pixels
Height : 800 pixels
Display aspect ratio : 2.40:1
Frame rate mode : Constant
Frame rate : 23.976 (24000/1001) FPS
Color space : YUV
Chroma subsampling : 4:2:0
Bit depth : 8 bits
Scan type : Progressive
Bits/(Pixel*Frame) : 0.058
Stream size : 1.42 GiB (80%)
Writing library : x264 core 152
Encoding settings : cabac=1 / ref=4 / deblock=1:-1:-1 / analyse=0x3:0x133 / me=umh / subme=9 / psy=1 / psy_rd=1.00:0.15 / mixed_ref=1 / me_range=24 / chroma_me=1 / trellis=2 / 8x8dct=1 / cqm=0 / deadzone=21,11 / fast_pskip=0 / chroma_qp_offset=-3 / threads=12 / lookahead_threads=1 / sliced_threads=0 / nr=0 / decimate=1 / interlaced=0 / bluray_compat=0 / constrained_intra=0 / bframes=3 / b_pyramid=2 / b_adapt=2 / b_bias=0 / direct=3 / weightb=1 / open_gop=0 / weightp=2 / keyint=250 / keyint_min=23 / scenecut=40 / intra_refresh=0 / rc_lookahead=60 / rc=2pass / mbtree=1 / bitrate=2150 / ratetol=1.0 / qcomp=0.60 / qpmin=0 / qpmax=69 / qpstep=4 / cplxblur=20.0 / qblur=0.5 / vbv_maxrate=31250 / vbv_bufsize=31250 / nal_hrd=none / filler=0 / ip_ratio=1.40 / aq=1:1.00
Default : Yes
Forced : No
Audio #1
ID : 2
Format : AAC LC
Format/Info : Advanced Audio Codec Low Complexity
Codec ID : A_AAC-2
Duration : 1 h 34 min
Bit rate : 144 kb/s
Channel(s) : 2 channels
Channel layout : L R
Sampling rate : 48.0 kHz
Frame rate : 46.875 FPS (1024 SPF)
Compression mode : Lossy
Delay relative to video : -43 ms
Stream size : 98.1 MiB (5%)
Language : Amharic
Default : Yes
Forced : No
Audio #2
ID : 3
Format : AAC LC
Format/Info : Advanced Audio Codec Low Complexity
Codec ID : A_AAC-2
Duration : 1 h 34 min
Bit rate : 384 kb/s
Channel(s) : 2 channels
Channel layout : L R
Sampling rate : 48.0 kHz
Frame rate : 46.875 FPS (1024 SPF)
Compression mode : Lossy
Delay relative to video : -43 ms
Stream size : 260 MiB (14%)
Language : Hindi
Default : No
Forced : No
Menu
00:00:00.000 : en:Chapter 1
00:04:04.786 : en:Chapter 2
00:08:26.297 : en:Chapter 3
00:15:11.702 : en:Chapter 4
00:21:00.634 : en:Chapter 5
00:25:43.583 : en:Chapter 6
00:30:50.265 : en:Chapter 7
00:38:00.861 : en:Chapter 8
00:44:37.341 : en:Chapter 9
00:50:07.671 : en:Chapter 10
00:56:21.294 : en:Chapter 11
01:01:07.580 : en:Chapter 12
01:07:02.560 : en:Chapter 13
01:10:30.809 : en:Chapter 14
01:14:35.137 : en:Chapter 15
01:21:51.990 : en:Chapter 16


vlcsnap-2020-05-07-11h44m57s920vlcsnap-2020-05-07-11h45m06s693vlcsnap-2020-05-07-11h45m13s933vlcsnap-2020-05-07-11h45m19s626vlcsnap-2020-05-07-11h45m29s582vlcsnap-2020-05-07-11h45m33s553vlcsnap-2020-05-07-11h45m47s081vlcsnap-2020-05-07-11h45m42s510vlcsnap-2020-05-07-11h45m56s423
Gdrive Single LInk+Download

https://bit.ly/35G2H0Z

0 0 vote
Article Rating
Subscribe
Notify of
guest
0 Comments
Inline Feedbacks
View all comments