Pet.Sematary.2019.1080p.10bit.BluRay.8CH.x265.HEVC-PSA Hin(Org)-Eng 1.5Gb

Pet Sematary (2019) (BLU-RAY)

Format : Matroska
Format version : Version 4
File size : 1.56 GiB
Duration : 1 h 40 min
Overall bit rate : 2 212 kb/s
Writing application : mkvmerge v46.0.0 (‘No Deeper Escape’) 64-bit
Writing library : libebml v1.3.10 + libmatroska v1.5.2

Video
ID : 1
Format : HEVC
Format/Info : High Efficiency Video Coding
Format profile : Main [email protected]@Main
Codec ID : V_MPEGH/ISO/HEVC
Duration : 1 h 40 min
Bit rate : 1 828 kb/s
Width : 1 920 pixels
Height : 808 pixels
Display aspect ratio : 2.40:1
Frame rate mode : Constant
Frame rate : 23.976 (24000/1001) FPS
Color space : YUV
Chroma subsampling : 4:2:0
Bit depth : 10 bits
Bits/(Pixel*Frame) : 0.049
Stream size : 1.29 GiB (83%)
Default : Yes
Forced : No

Audio #1
ID : 2
Format : AAC LC SBR
Format/Info : Advanced Audio Codec Low Complexity with Spectral Band Replication
Commercial name : HE-AAC
Format settings : Explicit
Codec ID : A_AAC-2
Duration : 1 h 40 min
Bit rate : 279 kb/s
Channel(s) : 8 channels
Channel layout : C L R Ls Rs Lw Rw LFE
Sampling rate : 48.0 kHz
Frame rate : 23.438 FPS (2048 SPF)
Compression mode : Lossy
Delay relative to video : 31 ms
Stream size : 201 MiB (13%)
Language : English
Default : Yes
Forced : No

Audio #2
ID : 5
Format : AAC LC
Format/Info : Advanced Audio Codec Low Complexity
Codec ID : A_AAC-2
Duration : 1 h 40 min
Bit rate : 96.0 kb/s
Channel(s) : 2 channels
Channel layout : L R
Sampling rate : 48.0 kHz
Frame rate : 46.875 FPS (1024 SPF)
Compression mode : Lossy
Delay relative to video : 846 ms
Stream size : 69.4 MiB (4%)
Title : Track 2 Hindi
Language : Hindi
Default : No
Forced : No

Text #1
ID : 3
Format : UTF-8
Codec ID : S_TEXT/UTF8
Codec ID/Info : UTF-8 Plain Text
Duration : 1 h 32 min
Bit rate : 36 b/s
Count of elements : 857
Stream size : 24.6 KiB (0%)
Language : English
Default : Yes
Forced : No

Text #2
ID : 4
Format : UTF-8
Codec ID : S_TEXT/UTF8
Codec ID/Info : UTF-8 Plain Text
Duration : 1 h 36 min
Bit rate : 45 b/s
Count of elements : 1211
Stream size : 32.1 KiB (0%)
Title : SDH
Language : English
Default : No
Forced : No

Text #3
ID : 6
Format : PGS
Muxing mode : zlib
Codec ID : S_HDMV/PGS
Codec ID/Info : Picture based subtitle format used on BDs/HD-DVDs
Duration : 1 h 38 min
Bit rate : 17.3 kb/s
Count of elements : 1760
Stream size : 12.1 MiB (1%)
Title : Hindi Audio Digital
Language : Hindi
Default : No
Forced : Yes


vlcsnap-2020-05-28-13h29m13s589vlcsnap-2020-05-28-13h29m27s506vlcsnap-2020-05-28-13h29m31s470vlcsnap-2020-05-28-13h29m46s734vlcsnap-2020-05-28-13h31m47s076vlcsnap-2020-05-28-13h31m53s116vlcsnap-2020-05-28-13h31m57s757vlcsnap-2020-05-28-13h32m12s167vlcsnap-2020-05-28-13h32m33s022
Gdrive Single Link+Download
https://bit.ly/2X75zBq

0 0 vote
Article Rating
Subscribe
Notify of
guest
0 Comments
Inline Feedbacks
View all comments