Pagalpanti (2019) (MUSIC VIDEOS ALBUM) 1080p WebHD AVC DDP 5.1 By-DusIcTv | G- Drive | 900 MB |

 

xxxxxxxxxxxxxxxxxxxxxxxxxxxxxxxxxxxxxxxxxxxxxxxxxxxxxxxxxxxxxxxxxxxxxxxxxxxxxxxxxxxxxxxxxxxxxxxxxxx
Pagalpanti (2019) (MUSIC VIDEOS ALBUM) 1080p WebHD AVC DDP 5.1 By-DusIcTv
xxxxxxxxxxxxxxxxxxxxxxxxxxxxxxxxxxxxxxxxxxxxxxxxxxxxxxxxxxxxxxxxxxxxxxxxxxxxxxxxxxxxxxxxxxxxxxxxxxx

Media info
General
Format : Matroska
Format version : Version 4
File size : 962 MB
Overall bit rate : 10.4 Mb/s
Encoded date : UTC 2020-01-16 19:54:46
Writing application : mkvmerge v42.0.0 (‘Overtime’) 64-bit
Writing library : libebml v1.3.10 + libmatroska v1.5.2

Video
ID : 1
Format : AVC
Format/Info : Advanced Video Codec
Format profile : [email protected]
Format settings : CABAC / 4 Ref Frames
Format settings, CABAC : Yes
Format settings, Reference frames : 4 frames
Codec ID : V_MPEG4/ISO/AVC
Bit rate mode : Constant
Bit rate : 10 000 kb/s
Width : 1 920 pixels
Height : 800 pixels
Display aspect ratio : 2.40:1
Frame rate mode : Constant
Frame rate : 24.000 FPS
Color space : YUV
Chroma subsampling : 4:2:0
Bit depth : 8 bits
Scan type : Progressive
Bits/(Pixel*Frame) : 0.271
Stream size : 176 MiB (94%)
Title : By-DusIcTv
Default : Yes
Forced : No
Color range : Limited
Color primaries : BT.709
Transfer characteristics : BT.709
Matrix coefficients : BT.709

Audio
ID : 2
Format : E-AC-3
Format/Info : Enhanced AC-3
Commercial name : Dolby Digital Plus
Codec ID : A_EAC3
Bit rate mode : Constant
Bit rate : 640 kb/s
Channel(s) : 6 channels
Channel layout : L R C LFE Ls Rs
Sampling rate : 48.0 kHz
Frame rate : 31.250 FPS (1536 SPF)
Compression mode : Lossy
Stream size : 11.6 MiB (6%)
Title : By-DusIcTv
Language : Hindi
Service kind : Complete Main
Default : No
Forced : No

Text
ID : 3
Format : UTF-8
Codec ID : S_TEXT/UTF8
Codec ID/Info : UTF-8 Plain Text
Bit rate : 50 b/s
Count of elements : 20
Stream size : 698 Bytes (0%)
Title : By-DusIcTv
Language : English
Default : No
Forced : No

G- Drive Download Zip ( soon  )

The File Locker Zip 

The File Locker Download 

01-Tum Par Hum Hai Atke [By-DusIcTv].mkv – 187.8 MB

02-Walla Walla [By-DusIcTv].mkv – 237.3 MB

03-Bimar Dil [By-DusIcTv].mkv – 219.1 MB

04-Bimar Dil [By-DusIcTv].mkv – 109.8 MB

05-Thumka [By-DusIcTv].mkv – 208.4 MB

0 0 vote
Article Rating
Subscribe
Notify of
guest
0 Comments
Inline Feedbacks
View all comments