Original Sin 2001 1080p Blu-ray Remux DTS-HD DD5.1 English -Saturnweb | G- Drive | 16.4 GB |

General

Format : Matroska
Format version : Version 4
File size : 16.5 GiB
Duration : 1 h 58 min
Overall bit rate mode : Variable
Overall bit rate : 19.9 Mb/s
Encoded date : UTC 2019-12-15 02:20:40
Writing application : mkvmerge v29.0.0 (‘Like It Or Not’) 32-bit
Writing library : libebml v1.3.6 + libmatroska v1.4.9

Video
ID : 1
Format : AVC
Format/Info : Advanced Video Codec
Format profile : [email protected]
Format settings : CABAC / 4 Ref Frames
Format settings, CABAC : Yes
Format settings, ReFrames : 4 frames
Codec ID : V_MPEG4/ISO/AVC
Duration : 1 h 58 min
Bit rate mode : Variable
Bit rate : 15.0 Mb/s
Maximum bit rate : 26.0 Mb/s
Width : 1 920 pixels
Height : 1 080 pixels
Display aspect ratio : 16:9
Frame rate mode : Constant
Frame rate : 23.976 (24000/1001) FPS
Standard : NTSC
Color space : YUV
Chroma subsampling : 4:2:0
Bit depth : 8 bits
Scan type : Progressive
Bits/(Pixel*Frame) : 0.302
Stream size : 12.4 GiB (75%)
Default : Yes
Forced : No
Color range : Limited
Color primaries : BT.709
Transfer characteristics : BT.709
Matrix coefficients : BT.709

Audio #1
ID : 2
Format : DTS XLL
Format/Info : Digital Theater Systems
Commercial name : DTS-HD Master Audio
Codec ID : A_DTS
Duration : 1 h 58 min
Bit rate mode : Variable
Bit rate : 1 984 kb/s
Channel(s) : 6 channels
Channel layout : C L R Ls Rs LFE
Sampling rate : 48.0 kHz
Frame rate : 93.750 FPS (512 SPF)
Bit depth : 16 bits
Compression mode : Lossless
Stream size : 1.64 GiB (10%)
Language : Russian
Default : Yes
Forced : No

Audio #2
ID : 3
Format : DTS XLL
Format/Info : Digital Theater Systems
Commercial name : DTS-HD Master Audio
Codec ID : A_DTS
Duration : 1 h 58 min
Bit rate mode : Variable
Bit rate : 1 971 kb/s
Channel(s) : 6 channels
Channel layout : C L R Ls Rs LFE
Sampling rate : 48.0 kHz
Frame rate : 93.750 FPS (512 SPF)
Bit depth : 16 bits
Compression mode : Lossless
Stream size : 1.63 GiB (10%)
Language : English
Default : No
Forced : No

Audio #3
ID : 4
Format : DTS XLL
Format/Info : Digital Theater Systems
Commercial name : DTS-HD Master Audio
Codec ID : A_DTS
Duration : 1 h 58 min
Bit rate mode : Variable
Bit rate : 972 kb/s
Channel(s) : 2 channels
Channel layout : L R
Sampling rate : 48.0 kHz
Frame rate : 93.750 FPS (512 SPF)
Bit depth : 16 bits
Compression mode : Lossless
Stream size : 823 MiB (5%)
Language : English
Default : No
Forced : No

 

Full Movie  Download 

https://drive.klop.me/file/bea7f897e5

https://sharer.pw/file/4IVshxORsbc

https://thefileslocker.com/pwkd4ymvc8v6.html

G- Drive Parts 4.5 GB 

Original Sin 2001 1080p Blu-ray Remux DTS-HD DD5.1 English -Saturnweb.part1.rar

Original Sin 2001 1080p Blu-ray Remux DTS-HD DD5.1 English -Saturnweb.part2.rar

Original Sin 2001 1080p Blu-ray Remux DTS-HD DD5.1 English -Saturnweb.part3.rar

Original Sin 2001 1080p Blu-ray Remux DTS-HD DD5.1 English -Saturnweb.part4.rar

The File Locker Download  4.5 GB 

Original Sin 2001 1080p Blu-ray Remux DTS-HD DD5.1 English -Saturnweb.part4.rar – 2.0 GB

Original Sin 2001 1080p Blu-ray Remux DTS-HD DD5.1 English -Saturnweb.part3.rar – 4.4 GB

Original Sin 2001 1080p Blu-ray Remux DTS-HD DD5.1 English -Saturnweb.part2.rar – 4.4 GB

Original Sin 2001 1080p Blu-ray Remux DTS-HD DD5.1 English -Saturnweb.part1.rar – 4.4 GB

0 0 vote
Article Rating
Subscribe
Notify of
guest
0 Comments
Inline Feedbacks
View all comments