NEWYORK [2009] x265 10-Bit Blu-ray 1080p DTS 5.1 – DB9 | 9.22 GB |


Media Info:

Format : Matroska
Format version : Version 2
File size : 9.23 GiB
Duration : 2 h 31 min
Overall bit rate mode : Variable
Overall bit rate : 8 740 kb/s
Movie name : Merge 2
Encoded date : UTC 2020-04-01 13:49:25
Writing application : DVDFab 11.0.6.5
Writing library : libebml v1.3.4 + libmatroska v1.4.5

Video
ID : 1
Format : HEVC
Format/Info : High Efficiency Video Coding
Format profile : Main [email protected]@Main
Codec ID : V_MPEGH/ISO/HEVC
Duration : 2 h 31 min
Bit rate : 5 617 kb/s
Width : 1 920 pixels
Height : 816 pixels
Display aspect ratio : 2.35:1
Frame rate mode : Constant
Frame rate : 24.000 FPS
Color space : YUV
Chroma subsampling : 4:2:0
Bit depth : 10 bits
Bits/(Pixel*Frame) : 0.149
Stream size : 5.93 GiB (64%)
Default : Yes
Forced : No
Color range : Limited
Color primaries : BT.709
Transfer characteristics : BT.709
Matrix coefficients : BT.709

Audio
ID : 2
Format : DTS XLL
Format/Info : Digital Theater Systems
Commercial name : DTS-HD Master Audio
Codec ID : A_DTS
Duration : 2 h 31 min
Bit rate mode : Variable
Bit rate : 3 121 kb/s
Channel(s) : 6 channels
Channel layout : C L R Ls Rs LFE
Sampling rate : 48.0 kHz
Frame rate : 93.750 FPS (512 SPF)
Bit depth : 16 bits
Compression mode : Lossless
Stream size : 3.30 GiB (36%)
Default : Yes
Forced : No


Screenshots:

First on x265 / DTS encode

NEWYORK [2009] x265 10-Bit Bluray 1080p DTS 5.1 – DB9 [9.22 GB]

https://drive.klop.me/file/2f739c0b31

0 0 vote
Article Rating
Subscribe
Notify of
guest
7 Comments
Oldest
Newest Most Voted
Inline Feedbacks
View all comments
salman
1 year ago

finally my wait is over, thanks alot desishare

prakash
prakash
1 year ago

force 2
apna sapna money money
please

Himanshu Joshi
Himanshu Joshi
1 year ago

Bhatt dhairy please upload Dhoom 2004 bollywood movie bluray hd and Sunday 2008 bollywood movie in your print quality please upload

Himanshu Joshi
1 year ago

Bhatt dhairy you upload newyork movie for request but why you not upload Dhoom 2004 bollywood movie…. please friend do upload DHOOM BOLLYWOOD MOVIE 2004 IN BLURAY PRINT QUALITY