Natpe Thunai (2019) Full Tamil Movie Proper – 480p HDRip – x264 – 500MB – ESubs

Format : Matroska
Format version : Version 4
File size : 510 MiB
Duration : 2 h 31 min
Overall bit rate : 472 kb/s
Movie name : [DesiShare.org]
Encoded date : UTC 2019-06-01 09:48:52
Writing application : mkvmerge v32.0.0 (‘Astral Progressions’) 64-bit
Writing library : libebml v1.3.7 + libmatroska v1.5.0 / Lavf58.20.100

Video
ID : 1
Format : AVC
Format/Info : Advanced Video Codec
Format profile : [email protected]
Format settings : CABAC / 4 Ref Frames
Format settings, CABAC : Yes
Format settings, RefFrames : 4 frames
Codec ID : V_MPEG4/ISO/AVC
Duration : 2 h 31 min
Bit rate : 406 kb/s
Width : 608 pixels
Height : 252 pixels
Display aspect ratio : 2.40:1
Frame rate mode : Constant
Frame rate : 29.970 FPS
Color space : YUV
Chroma subsampling : 4:2:0
Bit depth : 8 bits
Scan type : Progressive
Bits/(Pixel*Frame) : 0.088
Stream size : 438 MiB (86%)
Title : [DesiShare.org]

Default : Yes
Forced : No
Color range : Limited
Color primaries : BT.709
Transfer characteristics : BT.709
Matrix coefficients : BT.709

Audio
ID : 2
Format : MPEG Audio
Format version : Version 1
Format profile : Layer 3
Format settings : Joint stereo / MS Stereo
Codec ID : A_MPEG/L3
Codec ID/Hint : MP3
Duration : 2 h 31 min
Bit rate mode : Constant
Bit rate : 64.0 kb/s
Channel(s) : 2 channels
Sampling rate : 48.0 kHz
Frame rate : 41.667 FPS (1152 SPF)
Compression mode : Lossy
Delay relative to video : -23 ms
Stream size : 69.1 MiB (14%)
Title : [DesiShare.org]
Writing library : LAME3.100
Language : English
Default : Yes
Forced : No

PLAY ONLINE

Torrent Download {500MB} {zip}

Quick Download {500MB} {zip}

{ Direct } Download  Link {500MB}

{ G-Drive } Download  Link {500MB}

{ Mega – Drive } Download  Link {500MB} {ZIP}

{Media Fire } Download  Link {500MB} {zip}

 

0 0 vote
Article Rating
Subscribe
Notify of
guest
0 Comments
Inline Feedbacks
View all comments