Namak Halaal (1982) 1080p Untouched WEB-DL x264 {Hindi DD+2.0 & DD 2.0} ESub By~Hammer~

Namak Halaal (1982) 2h 51min | Action, Comedy, Drama | 30 April 1982 (India) Summary: Brought up by his grandfather, Arjun Singh moves to the city in search of a new job and life. While in the city he meets Bhairon who helps him find a job as a singer in a 5-star hotel owned by Raja.
Countries: IndiaLanguages: Hindi

Namak Halaal (1982) 1080p Untouched WEB-DL x264 {Hindi DD+2.0 & DD 2.0} ESub By~Hammer~

General
Format                                   : Matroska
Format version                           : Version 4
File size                                : 6.13 GiB
Duration                                 : 2 h 51 min
Overall bit rate mode                    : Variable
Overall bit rate                         : 5 121 kb/s
Movie name                               : Namak Halaal (1982) 1080p Untouched WEB-DL x264 {Hindi DD+2.0} ESub By~Hammer~
Bit rate mode                            : Variable
Bit rate                                 : 4 870 kb/s
Maximum bit rate                         : 7 305 kb/s
Width                                    : 1 920 pixels
Height                                   : 1 080 pixels
Display aspect ratio                     : 16:9
Frame rate mode                          : Constant
Frame rate                               : 25.000 FPS
Title                                    : By~Hammer~
Language                                 : Hindi
Default                                  : Yes
Forced                                   : No

Audio #1
Format                                   : AC-3
Format/Info                              : Audio Coding 3
Commercial name                          : Dolby Digital
Codec ID                                 : A_AC3
Duration                                 : 2 h 51 min
Bit rate mode                            : Constant
Bit rate                                 : 128 kb/s
Channel(s)                               : 2 channels
Channel layout                           : L R
Sampling rate                            : 48.0 kHz
Frame rate                               : 31.250 FPS (1536 SPF)
Compression mode                         : Lossy
Stream size                              : 157 MiB (2%)
Title                                    : Hindi DD 2.0 128 kbps
Language                                 : Hindi
Default                                  : Yes
Forced                                   : Yes

Audio #2
Format                                   : E-AC-3
Format/Info                              : Enhanced AC-3
Commercial name                          : Dolby Digital Plus
Codec ID                                 : A_EAC3
Duration                                 : 2 h 51 min
Bit rate mode                            : Constant
Bit rate                                 : 128 kb/s
Channel(s)                               : 2 channels
Channel layout                           : L R
Sampling rate                            : 48.0 kHz
Frame rate                               : 31.250 FPS (1536 SPF)
Compression mode                         : Lossy
Stream size                              : 157 MiB (2%)
Title                                    : Hindi DD+ 2.0 128 kbps
Language                                 : Hindi
Default                                  : No
Forced                                   : No

Text
Format                                   : UTF-8
Codec ID                                 : S_TEXT/UTF8
Codec ID/Info                            : UTF-8 Plain Text
Duration                                 : 2 h 50 min
Bit rate                                 : 54 b/s
Count of elements                        : 2051
Stream size                              : 68.4 KiB (0%)
Title                                    : English SRT
Language                                 : English
Default                                  : Yes
Forced                                   : No

G- Drive Download 

https://sharer.pw/file/UbdRiix1axO

https://drive.klop.me/file/80455ad70f

https://crypt.warezforums.com/#Y3J5cHQud2FyZXpmb3J1bXMuY29t.m8ETgEsSt2d79PJYa3i8NVxPDjsyRIN11wJ3viHn+O5pyGFFRv1yhfGv7arjPSmNa0a/dDG+OFRzCIixuA==

The File Locker Download 

https://thefileslocker.com/6622thjo3y7u.html

0 0 vote
Article Rating
Subscribe
Notify of
guest
0 Comments
Inline Feedbacks
View all comments