Mujrim (1989) — 1080p Untouched Rip 4.15 Gb


General
Format : Matroska
Format version : Version 4
File size : 4.15 GiB
Duration : 2 h 42 min
Overall bit rate mode : Variable
Overall bit rate : 6 614 kb/s
Movie name : Mujrim (1989) Untouched 1080p WeBHD DL AVC
Encoded date : UTC 2019-11-09 10:00:50
Writing application : mkvmerge v39.0.0 (‘In The Waiting Line’) 64-bit
Writing library : libebml v1.3.9 + libmatroska v1.5.2

Video
ID : 1
Format : AVC
Format/Info : Advanced Video Codec
Format profile : [email protected]
Format settings : CABAC / 3 Ref Frames
Format settings, CABAC : Yes
Format settings, Reference frames : 3 frames
Codec ID : V_MPEG4/ISO/AVC
Duration : 2 h 42 min
Bit rate mode : Variable
Bit rate : 6 490 kb/s
Maximum bit rate : 9 735 kb/s
Width : 1 920 pixels
Height : 1 080 pixels
Display aspect ratio : 16:9
Frame rate mode : Constant
Frame rate : 24.000 FPS
Color space : YUV
Chroma subsampling : 4:2:0
Bit depth : 8 bits
Scan type : Progressive
Bits/(Pixel*Frame) : 0.130
Stream size : 7.36 GiB (98%)
Default : Yes
Forced : No

Audio
ID : 2
Format : E-AC-3
Format/Info : Enhanced AC-3
Codec ID : AAC
Duration : 2 h 42 min
Bit rate mode : Constant
Bit rate : 128 kb/s
Channel(s) : 2 channels
Channel layout : L R
Sampling rate : 48.0 kHz
Frame rate : 31.250 FPS (1536 SPF)
Compression mode : Lossy
Stream size : 149 MiB (2%)
Service kind : Complete Main
Default : Yes
Forced :Novlcsnap-2020-02-25-09h15m05s577vlcsnap-2020-02-25-09h14m57s213
vlcsnap-2020-02-25-09h15m11s169vlcsnap-2020-02-25-09h15m24s583vlcsnap-2020-02-25-09h15m34s895vlcsnap-2020-02-25-09h16m01s411

1080p [mshare.io +Download] (4.15Gb)

http://bit.ly/2VlSHqB

0 0 vote
Article Rating
Subscribe
Notify of
guest
1 Comment
Oldest
Newest Most Voted
Inline Feedbacks
View all comments
Iqbal
Iqbal
1 year ago

Please please admin it’s a humble request..please upload Kaalicharan (1976) and Teesri Manzil (1966) movie in zee5 print 720 or 1080 anything…please upload both the movies…