Mr. Majnu (2019) 720p Full Telugu Movie HDRip x264 AAC

File size : 1.36 GiB
Duration : 2 h 18 min
Overall bit rate : 1 410 kb/s
Movie name : [SaturnWeb] -Mr. Majnu (2019) 720p Telugu HDRip x264 AAC
Encoded date : UTC 2019-03-29 06:26:08
Writing application : mkvmerge v32.0.0 (‘Astral Progressions’) 64-bit
Writing library : libebml v1.3.7 + libmatroska v1.5.0

Video
ID : 1
Format : AVC
Format/Info : Advanced Video Codec
Format profile : [email protected]
Format settings : CABAC / 4 Ref Frames
Format settings, CABAC : Yes
Format settings, RefFrames : 4 frames
Codec ID : V_MPEG4/ISO/AVC
Duration : 2 h 18 min
Bit rate : 1 284 kb/s
Width : 1 280 pixels
Height : 544 pixels
Display aspect ratio : 2.35:1
Frame rate mode : Constant
Frame rate : 25.000 FPS
Color space : YUV
Chroma subsampling : 4:2:0
Bit depth : 8 bits
Scan type : Progressive
Bits/(Pixel*Frame) : 0.074
Stream size : 1.24 GiB (91%)

 

Audio
ID : 2
Format : AAC LC
Format/Info : Advanced Audio Codec Low Complexity
Codec ID : A_AAC-2
Duration : 2 h 18 min
Bit rate : 129 kb/s
Channel(s) : 2 channels
Channel layout : L R
Sampling rate : 48.0 kHz
Frame rate : 46.875 FPS (1024 SPF)
Compression mode : Lossy
Delay relative to video : -21 ms
Stream size : 128 MiB (9%)
Title : [SaturnWeb] Mr. Majnu (2019) 720p Telugu HDRip x264 AAC
Language : Telugu
Default : Yes
Forced : No


ScreenShots

b090809ac22aa83527713099afa149e6.jpg
1817d0198d324acd715ad10234c8ec8c.jpg
c4afcf105d2c3efe48d8a9e89d294e49.jpg
c5be38a4f7dd843faf445dcf970ce420.jpg
c960ebffe1e102874d13e35d76893c7a.jpg
043d5c63c70fc1646e3f9e50d3a227ef.jpg
6d9030d1cd4ef2dd6720540ec1d1c8c2.jpg
0885895d0017afd74fe127d029d4c411.jpg

 

{ Direct } Download  Link {1. 36 GB}

{ G-Drive } Download  Link {1. 36 GB}

{ Mega – Drive } Download  Link {1. 36 GB} {ZIP}

{Media Fire } Download  Link {1. 36 GB} {zip}

 

 

0 0 vote
Article Rating
Subscribe
Notify of
guest
1 Comment
Oldest
Newest Most Voted
Inline Feedbacks
View all comments
Pankaj singh Bisht
Pankaj singh Bisht
1 year ago

Link not working