MOM (2017) (MUSIC VIDEOS ALBUM) 1080p Blu-Ray Untouched BD50 TrueHD 7.1 By-DusIcTv

General
ID : 1 (0x1)
Format : BDAV
Format/Info : Blu-ray Video
File size : 2.23 GB
Overall bit rate mode : Variable
Overall bit rate : 29.5 Mb/s
Maximum Overall bit rate : 35.5 Mb/s

Video
ID : 4113 (0x1011)
Menu ID : 1 (0x1)
Format : AVC
Format/Info : Advanced Video Codec
Format profile : [email protected]
Format settings : CABAC / 4 Ref Frames
Format settings, CABAC : Yes
Format settings, Reference frames : 4 frames
Codec ID : 27
Bit rate mode : Constant
Bit rate : 26.0 Mb/s
Width : 1 920 pixels
Height : 1 080 pixels
Display aspect ratio : 16:9
Frame rate : 24.000 FPS
Color space : YUV
Chroma subsampling : 4:2:0
Bit depth : 8 bits
Scan type : Progressive
Bits/(Pixel*Frame) : 0.522
Stream size : 1.03 GiB (85%)

Audio #1
ID : 4352 (0x1100)
Menu ID : 1 (0x1)
Format : AC-3 MLP FBA 16-ch
Format/Info : Audio Coding 3 + Meridian Lossless Packing FBA with 16-channel presentation
Commercial name : Dolby TrueHD with Dolby Atmos
Muxing mode : Stream extension
Codec ID : 131
Duration : 5 min 52 s
Bit rate mode : Variable
Bit rate : 640 kb/s
Maximum bit rate : 6 996 kb/s
Channel(s) : 8 channels
Channel layout : L R C LFE Ls Rs Lb Rb
Sampling rate : 48.0 kHz
Frame rate : 31.250 FPS (1536 SPF)
Compression mode : Lossy
Delay relative to video : -117 ms
Stream size : 26.9 MiB (2%)
Service kind : Complete Main
Number of dynamic objects : 15
Bed channel count : 1 channel
Bed channel configuration : LFE

Audio #2
ID : 4353 (0x1101)
Menu ID : 1 (0x1)
Format : AC-3
Format/Info : Audio Coding 3
Commercial name : Dolby Digital
Codec ID : 129
Bit rate mode : Constant
Bit rate : 640 kb/s
Channel(s) : 6 channels
Channel layout : L R C LFE Ls Rs
Sampling rate : 48.0 kHz
Frame rate : 31.250 FPS (1536 SPF)
Compression mode : Lossy
Delay relative to video : -117 ms
Stream size : 26.9 MiB (2%)
Service kind : Complete Main

Audio #3
ID : 4354 (0x1102)
Menu ID : 1 (0x1)
Format : AC-3
Format/Info : Audio Coding 3
Commercial name : Dolby Digital
Codec ID : 129
Bit rate mode : Constant
Bit rate : 640 kb/s
Channel(s) : 6 channels
Channel layout : L R C LFE Ls Rs
Sampling rate : 48.0 kHz
Frame rate : 31.250 FPS (1536 SPF)
Compression mode : Lossy
Delay relative to video : -117 ms
Stream size : 26.9 MiB (2%)
Service kind : Complete Main

Audio #4
ID : 4355 (0x1103)
Menu ID : 1 (0x1)
Format : AC-3
Format/Info : Audio Coding 3
Commercial name : Dolby Digital
Codec ID : 129
Bit rate mode : Constant
Bit rate : 640 kb/s
Channel(s) : 6 channels
Channel layout : L R C LFE Ls Rs
Sampling rate : 48.0 kHz
Frame rate : 31.250 FPS (1536 SPF)
Compression mode : Lossy
Delay relative to video : -117 ms
Stream size : 26.9 MiB (2%)
Service kind : Complete Main

Audio #5
ID : 4356 (0x1104)
Menu ID : 1 (0x1)
Format : AC-3
Format/Info : Audio Coding 3
Commercial name : Dolby Digital
Codec ID : 129
Bit rate mode : Constant
Bit rate : 640 kb/s
Channel(s) : 6 channels
Channel layout : L R C LFE Ls Rs
Sampling rate : 48.0 kHz
Frame rate : 31.250 FPS (1536 SPF)
Compression mode : Lossy
Delay relative to video : -117 ms
Stream size : 26.9 MiB (2%)
Service kind : Complete Main

Text
ID : 4608 (0x1200)
Menu ID : 1 (0x1)
Format : PGS
Codec ID : 144

Zip Download 

01-O Sona Tere Liye [By-DusIcTv].m2ts – 1.0 GB

02-Chal Kahin Door [By-DusIcTv].m2ts – 1.2 GB

0 0 vote
Article Rating
Subscribe
Notify of
guest
2 Comments
Oldest
Newest Most Voted
Inline Feedbacks
View all comments
lethal111
lethal111
1 year ago

dear bro do you have available Golmaal 1979 bd50 untouched bluray hindi movie