Mohabbatien .2000 1080p BD 25 Rip 18.2Gb

Image result for mohabbatein 200 brrip cover

Complete name :\Mohabbatien .2000.BD25.X264.1080p.mkv
Format : Matroska
Format version : Version 4
File size : 18.9 GiB
Duration : 3 h 35 min
Overall bit rate : 12.5 Mb/s
Encoded date : UTC 2020-03-15 07:15:16
Writing application : mkvmerge v6.1.0 (‘Old Devil’) built on Mar 2 2013 14:32:37
Writing library : libebml v1.3.0 + libmatroska v1.4.0

Video
ID : 1
Format : AVC
Format/Info : Advanced Video Codec
Format profile : [email protected]
Format settings : CABAC / 8 Ref Frames
Format settings, CABAC : Yes
Format settings, Reference frames : 8 frames
Codec ID : V_MPEG4/ISO/AVC
Duration : 3 h 35 min
Bit rate : 11.0 Mb/s
Width : 1 920 pixels
Height : 816 pixels
Display aspect ratio : 2.35:1
Frame rate mode : Constant
Frame rate : 24.000 FPS
Color space : YUV
Chroma subsampling : 4:2:0
Bit depth : 8 bits
Scan type : Progressive
Bits/(Pixel*Frame) : 0.293
Stream size : 16.2 GiB (86%)
Title : Ant8 [BwTorrents.Ru]
Writing library : x264 core 92 r1510 33d382a
Encoding settings : cabac=1 / ref=8 / deblock=1:-2:-1 / analyse=0x3:0x133 / me=umh / subme=7 / psy=1 / psy_rd=1.00:0.20 / mixed_ref=1 / me_range=32 / chroma_me=1 / trellis=2 / 8x8dct=1 / cqm=0 / deadzone=21,11 / fast_pskip=0 / chroma_qp_offset=-3 / threads=6 / sliced_threads=0 / nr=0 / decimate=0 / interlaced=0 / constrained_intra=0 / bframes=8 / b_pyramid=2 / b_adapt=2 / b_bias=0 / direct=3 / wpredb=1 / wpredp=2 / keyint=250 / keyint_min=25 / scenecut=40 / intra_refresh=0 / rc_lookahead=50 / rc=2pass / mbtree=1 / bitrate=11000 / ratetol=1.0 / qcomp=0.60 / qpmin=10 / qpmax=51 / qpstep=4 / cplxblur=20.0 / qblur=0.5 / vbv_maxrate=50000 / vbv_bufsize=50000 / ip_ratio=1.40 / aq=1:1.00 / nal_hrd=none
Language : Hindi
Default : Yes
Forced : No

Audio
ID : 2
Format : DTS
Format/Info : Digital Theater Systems
Codec ID : A_DTS
Duration : 3 h 35 min
Bit rate mode : Constant
Bit rate : 1 509 kb/s
Channel(s) : 6 channels
Channel layout : C L R Ls Rs LFE
Sampling rate : 48.0 kHz
Frame rate : 93.750 FPS (512 SPF)
Bit depth : 16 bits
Compression mode : Lossy
Stream size : 2.27 GiB (12%)
Title : DTS 5.1 @ 1536 Kbps – Ant8
Language : Hindi
Default : No
Forced : No

Text
ID : 3
Format : VobSub
Muxing mode : zlib
Codec ID : S_VOBSUB
Codec ID/Info : Picture based subtitle format used on DVDs
Title : English Subtitles
Language : English
Default : No
Forced : No

Menu
00:00:00.000 : en:00:00:00.000
00:04:36.875 : en:00:04:36.875
00:05:30.750 : en:00:05:30.750
00:09:15.917 : en:00:09:15.917
00:12:26.125 : en:00:12:26.125
00:24:02.208 : en:00:24:02.208
00:29:07.542 : en:00:29:07.542
00:33:02.292 : en:00:33:02.292
00:36:31.667 : en:00:36:31.667
00:44:09.583 : en:00:44:09.583
00:51:40.708 : en:00:51:40.708
00:58:59.208 : en:00:58:59.208
01:00:30.625 : en:01:00:30.625
01:03:36.917 : en:01:03:36.917
01:06:14.875 : en:01:06:14.875
01:09:08.917 : en:01:09:08.917
01:18:27.667 : en:01:18:27.667
01:22:54.833 : en:01:22:54.833
01:26:05.292 : en:01:26:05.292
01:29:56.667 : en:01:29:56.667
01:37:04.792 : en:01:37:04.792
01:39:51.042 : en:01:39:51.042
01:46:30.042 : en:01:46:30.042
01:58:54.042 : en:01:58:54.042
02:01:42.292 : en:02:01:42.292
02:05:22.458 : en:02:05:22.458
02:07:32.125 : en:02:07:32.125
02:10:40.750 : en:02:10:40.750
02:21:52.250 : en:02:21:52.250
02:28:50.458 : en:02:28:50.458
02:36:04.250 : en:02:36:04.250
02:41:45.542 : en:02:41:45.542
02:43:58.917 : en:02:43:58.917
02:49:29.625 : en:02:49:29.625
03:01:13.000 : en:03:01:13.000
03:02:04.167 : en:03:02:04.167
03:09:38.167 : en:03:09:38.167
03:12:06.583 : en:03:12:06.583
03:15:09.458 : en:03:15:09.458
03:23:50.542 : en:03:23:50.542
03:32:20.042 : en:03:32:20.042

892e4b84c1d4e43d2e20ba7ed6aa9a20.gifvlcsnap-2020-03-15-19h13m24s439.pngvlcsnap-2020-03-15-19h13m15s972vlcsnap-2020-03-15-19h13m29s521vlcsnap-2020-03-15-19h13m48s318vlcsnap-2020-03-15-19h13m55s970vlcsnap-2020-03-15-19h14m01s164vlcsnap-2020-03-15-19h14m05s948vlcsnap-2020-03-15-19h14m11s288

1080p 7up.net Single Link

http://bit.ly/2vnQjFr

uloz.to Links In Parts

Part-1- http://bit.ly/2IMQOvV

Part-2- http://bit.ly/3d0Ud83

0 0 vote
Article Rating
Subscribe
Notify of
guest
0 Comments
Inline Feedbacks
View all comments