MIB INTERNATIONAL (2019) 1080p BluRay x264 {Hindi-Tam-Tel-Eng BD 5.1} FIRST ON NET Exclusive By~Hammer~ |G- Drive| 6.10 GB|

MIB INTERNATIONAL (2019) 1080p BluRay x264 {Hindi-Tam-Tel-Eng BD 5.1} FIRST ON NET Exclusive By~Hammer~

General
Format                                   : Matroska
Format version                           : Version 4
File size                                : 6.10 GiB
Duration                                 : 1 h 55 min
Overall bit rate                         : 7 599 kb/s
Movie name                               : MIB INTERNATIONAL (2019) 1080p BluRay x264 {Hindi-Tam-Tel-Eng BD 5.1} FIRST ON NET Exclusive By~Hammer~
Bit rate                                 : 5 000 kb/s
Width                                    : 1 920 pixels
Height                                   : 960 pixels
Display aspect ratio                     : 2.000
Frame rate mode                          : Constant
Frame rate                               : 23.976 (24000/1001) FPS
Title                                    : ~EncodeR~Hammer~
Language                                 : English
Default                                  : Yes
Forced                                   : No

Audio #1
Format                                   : AC-3
Format/Info                              : Audio Coding 3
Commercial name                          : Dolby Digital
Codec ID                                 : A_AC3
Duration                                 : 1 h 55 min
Bit rate mode                            : Constant
Bit rate                                 : 640 kb/s
Channel(s)                               : 6 channels
Channel layout                           : L R C LFE Ls Rs
Sampling rate                            : 48.0 kHz
Frame rate                               : 31.250 FPS (1536 SPF)
Compression mode                         : Lossy
Stream size                              : 526 MiB (8%)
Title                                    : Hindi Org BD 5.1 640 kbps By~Hammer~
Language                                 : Hindi
Default                                  : Yes
Forced                                   : No

Audio #2
Format                                   : AC-3
Format/Info                              : Audio Coding 3
Commercial name                          : Dolby Digital
Codec ID                                 : A_AC3
Duration                                 : 1 h 55 min
Bit rate mode                            : Constant
Bit rate                                 : 640 kb/s
Channel(s)                               : 6 channels
Channel layout                           : L R C LFE Ls Rs
Sampling rate                            : 48.0 kHz
Frame rate                               : 31.250 FPS (1536 SPF)
Compression mode                         : Lossy
Stream size                              : 526 MiB (8%)
Title                                    : Tamil Org BD 5.1 640 kbps By~Hammer~
Language                                 : Tamil
Default                                  : No
Forced                                   : No

Audio #3
Format                                   : AC-3
Format/Info                              : Audio Coding 3
Commercial name                          : Dolby Digital
Codec ID                                 : A_AC3
Duration                                 : 1 h 55 min
Bit rate mode                            : Constant
Bit rate                                 : 640 kb/s
Channel(s)                               : 6 channels
Channel layout                           : L R C LFE Ls Rs
Sampling rate                            : 48.0 kHz
Frame rate                               : 31.250 FPS (1536 SPF)
Compression mode                         : Lossy
Stream size                              : 526 MiB (8%)
Title                                    : Telugu Org BD 5.1 640 kbps By~Hammer~
Language                                 : Telugu
Default                                  : No
Forced                                   : No

Audio #4
Format                                   : AC-3
Format/Info                              : Audio Coding 3
Commercial name                          : Dolby Digital
Codec ID                                 : A_AC3
Duration                                 : 1 h 54 min
Bit rate mode                            : Constant
Bit rate                                 : 640 kb/s
Channel(s)                               : 6 channels
Channel layout                           : L R C LFE Ls Rs
Sampling rate                            : 48.0 kHz
Frame rate                               : 31.250 FPS (1536 SPF)
Compression mode                         : Lossy
Stream size                              : 526 MiB (8%)
Title                                    : English BD 5.1 640 kbps By~Hammer~
Language                                 : English
Default                                  : No
Forced                                   : No

Text #1
Format                                   : PGS
Muxing mode                              : zlib
Codec ID                                 : S_HDMV/PGS
Codec ID/Info                            : Picture based subtitle format used on BDs/HD-DVDs
Duration                                 : 1 h 43 min
Bit rate                                 : 46.4 kb/s
Count of elements                        : 3412
Stream size                              : 34.3 MiB (1%)
Title                                    : English PGS
Language                                 : English
Default                                  : Yes
Forced                                   : No

Text #2
Format                                   : PGS
Muxing mode                              : zlib
Codec ID                                 : S_HDMV/PGS
Codec ID/Info                            : Picture based subtitle format used on BDs/HD-DVDs
Duration                                 : 1 h 53 min
Bit rate                                 : 47.3 kb/s
Count of elements                        : 4028
Stream size                              : 38.4 MiB (1%)
Title                                    : English PGS
Language                                 : English
Default                                  : No
Forced                                   : No

G- Drive Download 

The File Locker Download 

0 0 vote
Article Rating
Subscribe
Notify of
guest
0 Comments
Inline Feedbacks
View all comments